[ Сегодня идет свободное скачивание без начисления Download ]


Статистика раздачи
Нет
 
   
 
Top  
 
 
-Неваляшка 2 (2014) SATRip- Год выпуска: 2014
Производство: Россия
Жанр: Комедия
Режиссер: Анарио Мамедов
Продюсер: Виктор Глухов
Актеры: Павел Деревянко, София Пригара, Карина Андоленко, Андрей Кайков, Эвелина Блёданс, Игорь Савочкин, Александр Робак, Михаил Шкамаридин, Надежда Тюрина, Александр Колесников
Описание фильма:
История современного рыцаря, для которого честь и данное им обещание, прежде всего.Он был известным боксером, о нем говорил весь мир. В свое время он отказался от миллиона, ради собственных принципов. И сейчас он отошел от дел и работает скромным охранником в ювелирном магазине. Он честен, благороден и, практически не победим. За это и получил свое прозвище - Неваляшка. Но все меняется, когда Неваляшка влюбляется в Катю. Тем более, что ее незаслуженно обидели. Постоять за честь "прекрасной дамы" становится для него главной целью, ради которой он готов пойти на все. Ему даже приходится вернуться на ринг и участвовать в турнире по боям без правил, чтобы найти обидчика Кати, ставя под угрозу собственное здоровье и даже жизнь.
Перевод: Не требуется (Русский)

Дата российской премьеры: 2 ноября 2014
Продолжительность: 01:25:31
Качество видео: SATRip
Видеокодек: Xvid
Битрейт видео: ~2075 kb/s
Размер кадра: 720x304
Аудиокодек: AC3 2.0
Битрейт аудио: 192 kb/s
Сэмпл: Скачать

MediaInfo:

Общее
Полное имя : E:\Фильмы\Неваляшка2.2014.SATRip.avi
Формат : AVI
Формат/Информация : Audio Video Interleave
Размер файла : 1,36 Гбайт
Продолжительность : 1 ч. 25 м.
Общий поток : 2277 Кбит/сек
Программа кодирования : VirtualDubModRus 1.5.10.2 (build 2542/release)
Библиотека кодирования : VirtualDubMod build 2542/release
Видео
Идентификатор : 0
Формат : MPEG-4 Visual
Профиль формата : Advanced Simple@L5
Параметр BVOP формата : 1
Параметр QPel формата : Нет
Параметр GMC формата : Без точки перехода
Параметр матрицы формата : Выборочная
Идентификатор кодека : XVID
Идентификатор кодека/Подсказка : XviD
Продолжительность : 1 ч. 25 м.
Битрейт : 2075 Кбит/сек
Ширина : 720 пикселей
Высота : 304 пикселя
Соотношение сторон : 2,35:1
Частота кадров : 25,000 кадров/сек
Цветовое пространство : YUV
Субдискретизация насыщенности : 4:2:0
Битовая глубина : 8 бит
Тип развёртки : Прогрессивная
Метод сжатия : С потерями
Бит/(Пиксели*Кадры) : 0.379
Размер потока : 1,24 Гбайт (91%)
Библиотека кодирования : XviD 73
Аудио
Идентификатор : 1
Формат : AC-3
Формат/Информация : Audio Coding 3
Расширение режима : CM (complete main)
Параметр Endianness формата : Big
Идентификатор кодека : 2000
Продолжительность : 1 ч. 25 м.
Вид битрейта : Постоянный
Битрейт : 192 Кбит/сек
Каналы : 2 канала
Расположение каналов : Front: L R
Частота : 48,0 КГц
Битовая глубина : 16 бит
Метод сжатия : С потерями
Размер потока : 117 Мбайт (8%)
Выравнивание : Разделение по промежуткам
Продолжительность промежутка : 40 мс. (1,00 видеокадр)
Время предзагрузки промежутка : 500 мс.
Скриншоты:
Время раздачи: с 23:00 до 8:30

[Цитировать]

Топик был перенесен из форума Новинки кинопроката в форум Комедия
Henkok



Показать сообщения:    

Текущее время: 11-Дек 13:04

Часовой пояс: UTC + 3


Вы не можете начинать темы
Вы не можете отвечать на сообщения
Вы не можете редактировать свои сообщения
Вы не можете удалять свои сообщения
Вы не можете голосовать в опросах
Вы не можете прикреплять файлы к сообщениям
Вы не можете скачивать файлы

!ВНИМАНИЕ!
Сайт не предоставляет электронные версии произведений, а занимается лишь коллекционированием и каталогизацией ссылок, присылаемых и публикуемых на форуме нашими читателями. Если вы являетесь правообладателем какого-либо представленного материала и не желаете, чтобы ссылка на него находилась в нашем каталоге, свяжитесь с нами, и мы незамедлительно удалим ее. Файлы для обмена на трекере предоставлены пользователями сайта, и администрация не несет ответственности за их содержание. Просьба не заливать файлы, защищенные авторскими правами, а также файлы нелегального содержания!