[ Сегодня идет свободное скачивание без начисления Download ]


Статистика раздачи
Нет
 
   
 
Top  
 
 
-Дружба и никакого секса? / What If (2013) BDRip [1080p] [Line]
«...being friends has its benefits?»
- Год выпуска: 2013
Производство: Ирландия, Канада / No Trace Camping, Caramel Film, Fastnet Films
Жанр: мелодрама, комедия
Режиссер: Майкл Даус
Сценарий: Элан Мэстай, Т.Дж. Дейв, Майкл Ринальди
Продюсер: Дэвид Гросс, Макдара Келлехер, Андре Руле
Актеры: Дэниэл Рэдклифф, Зои Казан, Меган Парк, Адам Драйвер, Маккензи Дэвис, Рейф Сполл, Люсиус Хойос, Джемайма Рупер, Томми-Амбер Пири, Меган Хефферн
Описание:
Двадцатилетние Уоллес и Шантри познакомились на вечеринке и между ними сразу пробежала искра. Молодые люди начинают общаться и обнаруживают, что они - родственные души, у которых очень много общего. Они ежедневно переписываются через электронную почту и смс и регулярно ходят вместе ужинать. В общем, всё идёт хорошо и тут вдруг выясняется одна маленькая деталь: у нее уже есть парень...
Перевод: Профессиональный (дублированный) [Line]
Вид субтитров: Вшитые отключаемые
Язык субтитров: Английский (SDH, full)

Дата мировой премьеры: 7 сентября 2013
Дата российской премьеры: 2 октября 2014
Рейтинг MPAA: PG-13
Возраст: 12+
Продолжительность: 01:38:48
Качество: BDRip [1080p]
Видео: MPEG-4 AVC/H.264, 1920x816 (2.35:1), 11.5 Mbps, 23.976 fps
Аудио 1: Русский - AC3 / 2.0 / 128 Kbps / 48.0 KHz - Профессиональный (дублированный) [Line]
Аудио 2: Английский - DTS / 5.1 / 1509 Kbps / 48.0 KHz - Оригинальный

MediaInfo

General
Unique ID                                : 236287904955033469969596113638858513784 (0xB1C3652987982B39962F5FB6E7915D78)
Complete name                            : C:\Downloads\What.If.2013.BDRip.1080p.D.mkv
Format                                   : Matroska
Format version                           : Version 4 / Version 2
File size                                : 9.27 GiB
Duration                                 : 1h 38mn
Overall bit rate                         : 13.4 Mbps
Movie name                               : What If (2013)
Encoded date                             : UTC 2014-11-08 18:57:03
Writing application                      : mkvmerge v7.3.0 ('Nouages') 64bit built on Oct 22 2014 18:53:34
Writing library                          : libebml v1.3.0 + libmatroska v1.4.1
DURATION                                 : 01:36:48.553000000
NUMBER_OF_FRAMES                         : 1558
NUMBER_OF_BYTES                          : 60824
_STATISTICS_WRITING_APP                  : mkvmerge v7.3.0 ('Nouages') 64bit built on Oct 22 2014 18:53:34
_STATISTICS_WRITING_DATE_UTC             : 2014-11-08 18:57:03
_STATISTICS_TAGS                         : BPS DURATION NUMBER_OF_FRAMES NUMBER_OF_BYTES
Attachment                               : Yes
Video
ID                                       : 1
Format                                   : AVC
Format/Info                              : Advanced Video Codec
Format profile                           : [url=mailto:[email protected]][email protected][/url]
Format settings, CABAC                   : Yes
Format settings, ReFrames                : 5 frames
Codec ID                                 : V_MPEG4/ISO/AVC
Duration                                 : 1h 38mn
Bit rate                                 : 11.5 Mbps
Width                                    : 1 920 pixels
Height                                   : 816 pixels
Display aspect ratio                     : 2.35:1
Frame rate mode                          : Constant
Frame rate                               : 23.976 fps
Color space                              : YUV
Chroma subsampling                       : 4:2:0
Bit depth                                : 8 bits
Scan type                                : Progressive
Bits/(Pixel*Frame)                       : 0.307
Stream size                              : 7.95 GiB (86%)
Title                                    : What.If.2013.1080p.BluRay.DTS.x264-HDAccess
Writing library                          : x264 core 142 r2479kMod dd79a61
Encoding settings                        : cabac=1 / ref=5 / deblock=1:-3:-3 / analyse=0x3:0x133 / me=umh / subme=10 / psy=1 / fade_compensate=0.00 / psy_rd=1.02:0.00 / mixed_ref=1 / me_range=24 / chroma_me=1 / trellis=2 / 8x8dct=1 / cqm=0 / deadzone=21,11 / fast_pskip=0 / chroma_qp_offset=-2 / threads=12 / lookahead_threads=2 / sliced_threads=0 / nr=0 / decimate=1 / interlaced=0 / bluray_compat=0 / constrained_intra=0 / fgo=0 / bframes=8 / b_pyramid=2 / b_adapt=2 / b_bias=0 / direct=3 / weightb=1 / open_gop=0 / weightp=2 / keyint=250 / keyint_min=23 / scenecut=40 / intra_refresh=0 / rc_lookahead=40 / rc=crf / mbtree=0 / crf=18.8000 / qcomp=0.65 / qpmin=0 / qpmax=69 / qpstep=4 / vbv_maxrate=50000 / vbv_bufsize=62500 / crf_max=0.0 / nal_hrd=none / filler=0 / ip_ratio=1.20 / pb_ratio=1.10 / aq=1:0.73
Language                                 : English
Default                                  : No
Forced                                   : No
DURATION                                 : 01:37:46.236000000
NUMBER_OF_FRAMES                         : 140649
NUMBER_OF_BYTES                          : 8735493412
_STATISTICS_WRITING_APP                  : mkvmerge v7.3.0 ('Nouages') 64bit built on Oct 22 2014 18:53:34
_STATISTICS_WRITING_DATE_UTC             : 2014-11-08 18:57:03
_STATISTICS_TAGS                         : BPS DURATION NUMBER_OF_FRAMES NUMBER_OF_BYTES
Audio #1
ID                                       : 2
Format                                   : AC-3
Format/Info                              : Audio Coding 3
Mode extension                           : CM (complete main)
Format settings, Endianness              : Big
Codec ID                                 : A_AC3
Duration                                 : 1h 38mn
Bit rate mode                            : Constant
Bit rate                                 : 128 Kbps
Channel(s)                               : 2 channels
Channel positions                        : Front: L R
Sampling rate                            : 44.1 KHz
Bit depth                                : 16 bits
Compression mode                         : Lossy
Stream size                              : 90.5 MiB (1%)
Title                                    : DUB [Line]
Language                                 : Russian
Default                                  : Yes
Forced                                   : No
Audio #2
ID                                       : 3
Format                                   : DTS
Format/Info                              : Digital Theater Systems
Mode                                     : 16
Format settings, Endianness              : Big
Codec ID                                 : A_DTS
Duration                                 : 1h 38mn
Bit rate mode                            : Constant
Bit rate                                 : 1 509 Kbps
Channel(s)                               : 6 channels
Channel positions                        : Front: L C R, Side: L R, LFE
Sampling rate                            : 48.0 KHz
Bit depth                                : 24 bits
Compression mode                         : Lossy
Delay relative to video                  : 11ms
Stream size                              : 1.04 GiB (11%)
Title                                    : original
Language                                 : English
Default                                  : No
Forced                                   : No
Text #1
ID                                       : 4
Format                                   : UTF-8
Codec ID                                 : S_TEXT/UTF8
Codec ID/Info                            : UTF-8 Plain Text
Title                                    : SDH
Language                                 : English
Default                                  : Yes
Forced                                   : No
Text #2
ID                                       : 5
Format                                   : UTF-8
Codec ID                                 : S_TEXT/UTF8
Codec ID/Info                            : UTF-8 Plain Text
Title                                    : Full
Language                                 : English
Default                                  : No
Forced                                   : No
Menu
00:00:00.000                             : en:00:00:00.000
00:07:11.181                             : en:00:07:11.181
00:16:29.197                             : en:00:16:29.197
00:23:47.885                             : en:00:23:47.885
00:33:31.551                             : en:00:33:31.551
00:40:53.242                             : en:00:40:53.242
00:44:33.713                             : en:00:44:33.713
00:49:57.786                             : en:00:49:57.786
00:54:10.706                             : en:00:54:10.706
01:03:39.774                             : en:01:03:39.774
01:07:48.273                             : en:01:07:48.273
01:12:17.875                             : en:01:12:17.875
01:17:37.820                             : en:01:17:37.820
01:20:37.124                             : en:01:20:37.124
01:27:04.636                             : en:01:27:04.636
01:30:40.852                             : en:01:30:40.852
Скриншоты: -
Время раздачи: 24/7, до 5 скачавших.

[Цитировать]



Показать сообщения:    

Текущее время: 05-Дек 03:31

Часовой пояс: UTC + 3


Вы не можете начинать темы
Вы не можете отвечать на сообщения
Вы не можете редактировать свои сообщения
Вы не можете удалять свои сообщения
Вы не можете голосовать в опросах
Вы не можете прикреплять файлы к сообщениям
Вы не можете скачивать файлы

!ВНИМАНИЕ!
Сайт не предоставляет электронные версии произведений, а занимается лишь коллекционированием и каталогизацией ссылок, присылаемых и публикуемых на форуме нашими читателями. Если вы являетесь правообладателем какого-либо представленного материала и не желаете, чтобы ссылка на него находилась в нашем каталоге, свяжитесь с нами, и мы незамедлительно удалим ее. Файлы для обмена на трекере предоставлены пользователями сайта, и администрация не несет ответственности за их содержание. Просьба не заливать файлы, защищенные авторскими правами, а также файлы нелегального содержания!