[ Сегодня идет свободное скачивание без начисления Download ]


Статистика раздачи
Нет
 
   
 
Top  
 
 
-Навстречу шторму / Into the Storm (2014) BDRip- Год выпуска: 2014
Производство: США, Broken Road Productions, New Line Cinema, Village Roadshow
Жанр: Приключения, Боевик, Триллер
Режиссер: Стивен Куэйл
Продюсер: Тодд Гарнер, В. Марк МакНейр, Шон Робинс
Актеры: Ричард Армитедж, Сара Уэйн Кэллис, Мэтт Уолш, Макс Дикон, Нэйтан Кресс, Алисия Дебнем Кери, Арлен Эскарпета, Джереми Самптер, Ли Уитэйкер, Кайл Дэвис
Описание фильма:
Всего лишь за один день невероятное «нашествие» смерчей практически уничтожило городок Сильверстон. Все его жители были отданы на растерзание непредсказуемым и смертельно опасным торнадо, и при этом метеорологи говорят, что худшее еще впереди. Большинство ищут убежища, в то время как немногие смельчаки идут навстречу стихии, испытывая себя: насколько далеко сможет зайти «охотник за торнадо» ради одного единственного — зато какого! — снимка.
Перевод: Дублированный [Лицензия]
Вид субтитров: Вшитые отключаемые
Язык субтитров: Русский (полные + форс.), английские (Full + SDH + SDH-Colored)
Навигация по главам: Есть.

Дата мировой премьеры: 28 июля 2014
Дата российской премьеры: 7 августа 2014, «Каро-Премьер»
Дата выхода DVD релиза: 13 ноября 2014, «CP Дистрибуция»
Продолжительность: 01:29:16
Качество видео: BDRip-AVC
Видеокодек: MPEG-4 AVC/H.264
Формат: MKV
Видео: x.264, 928x522 (16:9), 23,976 fps, 1960 kbps, 0.169 bit/pixel
Аудио: 48 kHz, AC3 Dolby Digital, 3/2 (L,C,R,l,r) + LFE ch, 384.00 kbps

Знаете ли вы, что...

• Статисты на съемочной площадке часто начинали петь между дублями, чтобы поднять общее настроение. Их любимой песней была песня группы Styx – «Come Sail Away».
• Статисты на съемочной площадке называли Скотта Лоуренса «Обамой» из-за его внешнего сходства и манеры поведения.

Рецензия:

Вот это я понимаю, Торнадо!
7 августа в свет российского кино вышел фильм «Навстречу шторму» (Into the Storm). По трейлеру было понятно, что пойдет речь о таком разрушительном стихийном бедствии, как торнадо или смерч. Режиссер, мне кажется, хотел показать всю «жуть», которая может произойти из-за столь сильного ветреного потока. Скажу сразу, ему это удалось!!! Режиссером картины является Стивен Куэйль.
Сюжет фильма. Все сумасшествие происходит в течении всего одного дня. Группа «Охотников за торнадо» во главе, которой стоит Пит (Мэтт Уолш), ищет по всему городку Сильверстону большой торнадо, чтобы на основе снимков сделать фильм. Также в составе группы: Элисон (Сара Уэйн Кэллисон) — метеоролог; Джейкоб (Джемери Самптер) — фотограф; Дэрел (Арлен Эскарпета) — водитель фургона, фотограф и другие. И тут происходит нашествие ураганов. Они один за другим появляются в разных районах городка и разрушают все, что попадается на их пути. Большинство жителей ищут убежище, чтобы выжить, а некоторые безумцы все ближе и ближе подходят к воронце для уникального снимка, на котором можно неплохо заработать.
Лучшее в фильме. Самое главное в фильме, как мне показалось, это естественность игры актеров. Они на протяжение всего фильма борются за свой город и как бы становятся одной сплоченной семьей. Главная цель для них — спасти жизнь как свою, так и других людей оказавшихся в этой ситуации. Еще одним жирным плюсом является метод съемки. Из-за него создается так называемый, «эффект присутствия».
Недостатки:
1. Очень продолжительная завязка.
2. Маленькие недоработки в ходе действий фильма (такое чувство, как будто торнадо, в некоторых моментах, просто ждет, пока герои фильма решат свои проблемы).
Подведем итоги. Фильм, несмотря на банальность сюжета, все-таки очень интересный и быстро затягивает. Также присутствует очень много эмоциональных моментов, которые не испытаешь при просмотре, например «Трансформеров»… Так скажем фильм на любителя, но мне он очень понравился.
И конечно же оценка:
10 из 10

MediaInfo:

General
Unique ID :
Complete name : C:\Навстречу шторму Into The Storm (2014) [H.264].mkv
Format : Matroska
Format version : Version 4 / Version 2
File size : 1.46 GiB
Duration : 1h 29mn
Overall bit rate : 2 344 Kbps
Movie name : Into The Storm (2014)
Encoded date : UTC 2014-11-11 06:28:27
Writing application : mkvmerge v5.9.0 ('On The Loose') built on Dec 15 2012 16:39:58
Writing library : libebml v1.3.0 + libmatroska v1.4.0
Video
ID : 1
Format : AVC
Format/Info : Advanced Video Codec
Format profile : High@L4.1
Format settings, CABAC : Yes
Format settings, ReFrames : 11 frames
Codec ID : V_MPEG4/ISO/AVC
Duration : 1h 29mn
Bit rate : 1 960 Kbps
Width : 928 pixels
Height : 522 pixels
Display aspect ratio : 16:9
Frame rate mode : Constant
Frame rate : 23.976 fps
Color space : YUV
Chroma subsampling : 4:2:0
Bit depth : 8 bits
Scan type : Progressive
Bits/(Pixel*Frame) : 0.169
Stream size : 1.19 GiB (82%)
Title : potroks
Writing library : x264 core 128 r2216M 198a7ea
Encoding settings : cabac=1 / ref=12 / deblock=1:-3:-3 / analyse=0x3:0x133 / me=umh / subme=11 / psy=1 / psy_rd=0.96:0.00 / mixed_ref=1 / me_range=48 / chroma_me=1 / trellis=2 / 8x8dct=1 / cqm=0 / deadzone=21,11 / fast_pskip=0 / chroma_qp_offset=-2 / threads=6 / lookahead_threads=1 / sliced_threads=0 / nr=0 / decimate=0 / interlaced=0 / bluray_compat=0 / constrained_intra=0 / bframes=13 / b_pyramid=1 / b_adapt=2 / b_bias=0 / direct=3 / weightb=1 / open_gop=0 / weightp=2 / keyint=250 / keyint_min=23 / scenecut=40 / intra_refresh=0 / rc_lookahead=150 / rc=2pass / mbtree=0 / bitrate=1960 / ratetol=1.0 / qcomp=0.73 / qpmin=0 / qpmax=69 / qpstep=4 / cplxblur=20.0 / qblur=0.5 / vbv_maxrate=50000 / vbv_bufsize=62500 / nal_hrd=none / ip_ratio=1.35 / pb_ratio=1.25 / aq=1:0.90
Language : English
Default : Yes
Forced : No
Audio
ID : 2
Format : AC-3
Format/Info : Audio Coding 3
Mode extension : CM (complete main)
Format settings, Endianness : Big
Codec ID : A_AC3
Duration : 1h 29mn
Bit rate mode : Constant
Bit rate : 384 Kbps
Channel(s) : 6 channels
Channel positions : Front: L C R, Side: L R, LFE
Sampling rate : 48.0 KHz
Bit depth : 16 bits
Compression mode : Lossy
Stream size : 245 MiB (16%)
Title : Dub | DD 5.1 @ 384 kbps - R5
Language : Russian
Default : Yes
Forced : No
Text #1
ID : 3
Format : UTF-8
Codec ID : S_TEXT/UTF8
Codec ID/Info : UTF-8 Plain Text
Title : форс.
Language : Russian
Default : Yes
Forced : Yes
Text #2
ID : 4
Format : UTF-8
Codec ID : S_TEXT/UTF8
Codec ID/Info : UTF-8 Plain Text
Title : полные
Language : Russian
Default : No
Forced : No
Text #3
ID : 5
Format : UTF-8
Codec ID : S_TEXT/UTF8
Codec ID/Info : UTF-8 Plain Text
Title : Full
Language : English
Default : No
Forced : No
Text #4
ID : 6
Format : UTF-8
Codec ID : S_TEXT/UTF8
Codec ID/Info : UTF-8 Plain Text
Title : SDH
Language : English
Default : No
Forced : No
Text #5
ID : 7
Format : UTF-8
Codec ID : S_TEXT/UTF8
Codec ID/Info : UTF-8 Plain Text
Title : SDH-Colored
Language : English
Default : No
Forced : No
Menu
00:00:00.000 : en:(01)00:00:00:000
00:09:37.201 : en:(02)00:09:37:201
00:19:58.029 : en:(03)00:19:58:029
00:29:52.248 : en:(04)00:29:52:248
00:38:48.409 : en:(05)00:38:48:409
00:47:59.083 : en:(06)00:47:59:083
01:00:39.010 : en:(07)01:00:39:010
01:08:59.510 : en:(08)01:08:59:510
01:19:59.752 : en:(09)01:19:59:752
01:23:58.698 : en:(10)01:23:58:698
01:29:17.143 : en:(11)01:29:17:143
Скриншоты:

Дополнительные скриншоты:

Незабываем благодарить релизёров. Приятного просмотра.
Время раздачи: (24/7 - круглосуточно)

[Цитировать]

Топик был перенесен из форума Новинки кинопроката в форум Боевик
Henkok



Показать сообщения:    

Текущее время: 09-Дек 20:33

Часовой пояс: UTC + 3


Вы не можете начинать темы
Вы не можете отвечать на сообщения
Вы не можете редактировать свои сообщения
Вы не можете удалять свои сообщения
Вы не можете голосовать в опросах
Вы не можете прикреплять файлы к сообщениям
Вы не можете скачивать файлы

!ВНИМАНИЕ!
Сайт не предоставляет электронные версии произведений, а занимается лишь коллекционированием и каталогизацией ссылок, присылаемых и публикуемых на форуме нашими читателями. Если вы являетесь правообладателем какого-либо представленного материала и не желаете, чтобы ссылка на него находилась в нашем каталоге, свяжитесь с нами, и мы незамедлительно удалим ее. Файлы для обмена на трекере предоставлены пользователями сайта, и администрация не несет ответственности за их содержание. Просьба не заливать файлы, защищенные авторскими правами, а также файлы нелегального содержания!