[ Сегодня идет свободное скачивание без начисления Download ]


Статистика раздачи
Нет
 
   
 
Top  
 
 
-Стерео / Stereo (2014) HDRip- Год выпуска: 2014
Производство: Германия - Frisbeefilms, Kaissar Film, Wild Bunch Germany, Zweites Deutsches Fernsehen (ZDF)
Жанр: Триллер
Режиссер: Максимилиан Эрленвайн
Актеры: Мориц Бляйбтрой, Юрген Фогель, Петра Шмидт-Шаллер, Георг Фридрих, Райнер Бок, Хакан Кан, Фабиан Хинрихс, Юрген Хольц, Николь Маришка
Описание фильма:
Поселившийся в уютном сельском уголке Эрик надеется на тихую жизнь и спокойную работу в своей мастерской по ремонту мотоциклов. Свободное время он проводит со своей новой подругой Юлией и их маленькой дочкой. Но идеальная жизнь Эрика рушится после появления таинственного незнакомца в капюшоне. Этот человек грубо врывается в жизнь Эрика буквально доводя его до безумия. Но когда еще более зловещие личности начинают угрожать Эрику, ему не остается ничего другого, как довериться незнакомцу...
Перевод: Двуголосый закадровый, любительский [DeadSno & den904]
Субтитры: отсутствуют

Дата мировой премьеры: 8 февраля 2014
Продолжительность: 01:37:40
Качество видео: HDRip
Видеокодек: Xvid
Битрейт видео: ~1576 kb/s
Размер кадра: 720x304
Аудиокодек: AC3, 6 ch
Битрейт аудио: 448 kb/s

МediaInfo:

Общее
Полное имя : E:\Фильмы\Стерео.2014.HDRip.avi
Формат : AVI
Формат/Информация : Audio Video Interleave
Размер файла : 1,39 Гбайт
Продолжительность : 1 ч. 37 м.
Общий поток : 2034 Кбит/сек
Программа кодирования : VirtualDubMod 1.5.10.2 (build 2542/release)
Библиотека кодирования : VirtualDubMod build 2542/release
Видео
Идентификатор : 0
Формат : MPEG-4 Visual
Профиль формата : Advanced [email protected]
Параметр BVOP формата : 2
Параметр QPel формата : Нет
Параметр GMC формата : Без точки перехода
Параметр матрицы формата : Default (H.263)
Идентификатор кодека : XVID
Идентификатор кодека/Подсказка : XviD
Продолжительность : 1 ч. 37 м.
Битрейт : 1576 Кбит/сек
Ширина : 720 пикселей
Высота : 304 пикселя
Соотношение сторон : 2,35:1
Частота кадров : 24,000 кадра/сек
Цветовое пространство : YUV
Субдискретизация насыщенности : 4:2:0
Битовая глубина : 8 бит
Тип развёртки : Прогрессивная
Метод сжатия : С потерями
Бит/(Пиксели*Кадры) : 0.300
Размер потока : 1,08 Гбайт (78%)
Библиотека кодирования : XviD 1.2.1 (UTC 2008-12-04)
Аудио
Идентификатор : 1
Формат : AC-3
Формат/Информация : Audio Coding 3
Расширение режима : CM (complete main)
Параметр Endianness формата : Big
Идентификатор кодека : 2000
Продолжительность : 1 ч. 37 м.
Вид битрейта : Постоянный
Битрейт : 448 Кбит/сек
Каналы : 6 каналов
Расположение каналов : Front: L C R, Side: L R, LFE
Частота : 48,0 КГц
Битовая глубина : 16 бит
Метод сжатия : С потерями
Размер потока : 313 Мбайт (22%)
Выравнивание : Разделение по промежуткам
Продолжительность промежутка : 42 мс. (1,00 видеокадр)
Время предзагрузки промежутка : 500 мс.
Скриншоты: Время раздачи: с 23:00 до 8:30

[Цитировать]



Показать сообщения:    

Текущее время: 05-Дек 23:43

Часовой пояс: UTC + 3


Вы не можете начинать темы
Вы не можете отвечать на сообщения
Вы не можете редактировать свои сообщения
Вы не можете удалять свои сообщения
Вы не можете голосовать в опросах
Вы не можете прикреплять файлы к сообщениям
Вы не можете скачивать файлы

!ВНИМАНИЕ!
Сайт не предоставляет электронные версии произведений, а занимается лишь коллекционированием и каталогизацией ссылок, присылаемых и публикуемых на форуме нашими читателями. Если вы являетесь правообладателем какого-либо представленного материала и не желаете, чтобы ссылка на него находилась в нашем каталоге, свяжитесь с нами, и мы незамедлительно удалим ее. Файлы для обмена на трекере предоставлены пользователями сайта, и администрация не несет ответственности за их содержание. Просьба не заливать файлы, защищенные авторскими правами, а также файлы нелегального содержания!