[ Сегодня идет свободное скачивание без начисления Download ]


Статистика раздачи
Нет
 
   
 
Top  
 
 
-Типа копы / Let's Be Cops (2014) BDRip- Год выпуска: 2014
Производство: США, 20th Century Fox Film Corporation
Жанр: Боевик, комедия
Режиссер: Люк Гринфилд
Продюсер: Люк Гринфилд, Саймон Кинберг, Адитья Суд
Актеры: Дэймон Уайанс мл., Джейк Джонсон, Роб Риггл, Нина Добрев, Джеймс Д’Арси, Энди Гарсиа, Анджела Кереч, Кинг, Либби Блэнтон, Кигэн-Майкл Ки
Описание фильма:
Двое приятелей переодеваются в полицейских для костюмированной вечеринки, в результате чего они становятся местной сенсацией. Но затем по стечению обстоятельств они впутываются в дела реальных бандитов и грязных детективов…
Перевод: Дублированный (iTunes)

Дата мировой премьеры: 13 августа 2014
Дата российской премьеры: 28 августа 2014
Дата выхода DVD релиза: 27 ноября 2014
Дата выхода Blu-Ray релиза: 27 ноября 2014
Продолжительность: 01:44:28
Качество видео: BDRip (1080p)
Видеокодек: MPEG-4 AVC
Битрейт видео: ~9351 Кбит/с
Размер кадра: 1920х1038
Аудио:
1. AC3, 6 ch, 384 Кбит/с - русский
2. AC3, 6 ch, 448 Кбит/с - английский

MediaInfo:

Общее
Уникальный идентификатор : 215544404071186336037871752585619310974 (0xA228579B5FED39C28D4788EF5352097E)
Полное имя : C:\NNM\Типа копы\Typa copy 2014 BDRip 1080p.mkv
Формат : Matroska
Версия формата : Version 2
Размер файла : 7,43 Гбайт
Продолжительность : 1 ч. 44 м.
Общий поток : 10,2 Мбит/сек
Программа кодирования : mkvmerge v6.1.0 ('Old Devil') built on Mar 4 2013 09:10:42
Библиотека кодирования : libebml v1.3.0 + libmatroska v1.4.0
Видео
Идентификатор : 1
Формат : AVC
Формат/Информация : Advanced Video Codec
Профиль формата : [email protected]
Параметр CABAC формата : Да
Параметр ReFrames формата : 4 кадра
Идентификатор кодека : V_MPEG4/ISO/AVC
Продолжительность : 1 ч. 44 м.
Битрейт : 9351 Кбит/сек
Ширина : 1920 пикселей
Высота : 1038 пикселей
Соотношение сторон : 1,850
Частота кадров : 23,976 кадра/сек
Цветовое пространство : YUV
Субдискретизация насыщенности : 4:2:0
Битовая глубина : 8 бит
Тип развёртки : Прогрессивная
Бит/(Пиксели*Кадры) : 0.196
Размер потока : 6,68 Гбайт (90%)
Библиотека кодирования : x264 core 142 r2409+42 04be48a tMod [[email protected] X86_64]
Настройки программы : cabac=1 / ref=4 / deblock=1:-3:-3 / analyse=0x3:0x133 / me=umh / subme=11 / psy=1 / fade_compensate=0.00 / psy_rd=1.00:0.00 / mixed_ref=1 / me_range=32 / chroma_me=1 / trellis=2 / 8x8dct=1 / cqm=0 / deadzone=21,11 / fast_pskip=0 / chroma_qp_offset=-2 / threads=12 / lookahead_threads=1 / sliced_threads=0 / slices=4 / nr=0 / decimate=0 / interlaced=0 / bluray_compat=0 / constrained_intra=0 / fgo=0 / bframes=8 / b_pyramid=2 / b_adapt=2 / b_bias=0 / direct=3 / weightb=1 / open_gop=0 / weightp=2 / keyint=240 / keyint_min=23 / scenecut=40 / intra_refresh=0 / rc=2pass / mbtree=0 / bitrate=9351 / ratetol=1.0 / qcomp=0.60 / qpmin=0:0:0 / qpmax=69:69:69 / qpstep=4 / cplxblur=20.0 / qblur=0.5 / ip_ratio=1.40 / pb_ratio=1.30 / aq=4:0.80 / aq-sensitivity=11.00 / aq-factor=1.00:1.00:1.00 / aq2=1:0.60 / aq2-sensitivity=9.00 / aq2-factor=1.00:1.00:1.00 / aq3=1:[0.60:0.60]:[0.60:0.60]:[0.60:0.60]:[0.60:0.60] / aq3-sensitivity=9.00 / aq3-factor=[1.00:1.00]:[1.00:1.00]:[1.00:1.00] / aq3-boundary=192:64:24
Язык : English
Default : Да
Forced : Нет
Аудио #1
Идентификатор : 2
Формат : AC-3
Формат/Информация : Audio Coding 3
Расширение режима : CM (complete main)
Идентификатор кодека : A_AC3
Продолжительность : 1 ч. 44 м.
Вид битрейта : Постоянный
Битрейт : 384 Кбит/сек
Каналы : 6 каналов
Расположение каналов : Front: L C R, Side: L R, LFE
Частота : 48,0 КГц
Битовая глубина : 16 бит
Метод сжатия : С потерями
Размер потока : 287 Мбайт (4%)
Заголовок : [iTunes]
Язык : Russian
Default : Да
Forced : Нет
Аудио #2
Идентификатор : 3
Формат : AC-3
Формат/Информация : Audio Coding 3
Расширение режима : CM (complete main)
Идентификатор кодека : A_AC3
Продолжительность : 1 ч. 44 м.
Вид битрейта : Постоянный
Битрейт : 448 Кбит/сек
Каналы : 6 каналов
Расположение каналов : Front: L C R, Side: L R, LFE
Частота : 48,0 КГц
Битовая глубина : 16 бит
Метод сжатия : С потерями
Размер потока : 335 Мбайт (4%)
Язык : English
Default : Нет
Forced : Нет
Меню
00:00:00.000 : en:Chapter 01
00:01:58.785 : en:Chapter 02
00:03:34.797 : en:Chapter 03
00:07:24.652 : en:Chapter 04
00:11:11.629 : en:Chapter 05
00:13:44.281 : en:Chapter 06
00:17:39.099 : en:Chapter 07
00:19:59.656 : en:Chapter 08
00:23:06.134 : en:Chapter 09
00:26:43.602 : en:Chapter 10
00:31:26.926 : en:Chapter 11
00:33:19.664 : en:Chapter 12
00:39:32.203 : en:Chapter 13
00:41:30.654 : en:Chapter 14
00:44:34.421 : en:Chapter 15
00:48:47.925 : en:Chapter 16
00:52:29.146 : en:Chapter 17
00:54:43.321 : en:Chapter 18
00:59:54.591 : en:Chapter 19
01:02:48.014 : en:Chapter 20
01:06:55.594 : en:Chapter 21
01:09:15.734 : en:Chapter 22
01:10:45.241 : en:Chapter 23
01:14:02.688 : en:Chapter 24
01:18:00.175 : en:Chapter 25
01:21:58.663 : en:Chapter 26
01:24:54.923 : en:Chapter 27
01:28:35.393 : en:Chapter 28
01:30:09.570 : en:Chapter 29
01:33:38.029 : en:Chapter 30
01:37:09.448 : en:Chapter 31
01:38:32.114 : en:Chapter 32
Скриншоты:

Время раздачи: Круглосуточно до 10 скачавших

[Цитировать]



Показать сообщения:    

Текущее время: 05-Дек 19:40

Часовой пояс: UTC + 3


Вы не можете начинать темы
Вы не можете отвечать на сообщения
Вы не можете редактировать свои сообщения
Вы не можете удалять свои сообщения
Вы не можете голосовать в опросах
Вы не можете прикреплять файлы к сообщениям
Вы не можете скачивать файлы

!ВНИМАНИЕ!
Сайт не предоставляет электронные версии произведений, а занимается лишь коллекционированием и каталогизацией ссылок, присылаемых и публикуемых на форуме нашими читателями. Если вы являетесь правообладателем какого-либо представленного материала и не желаете, чтобы ссылка на него находилась в нашем каталоге, свяжитесь с нами, и мы незамедлительно удалим ее. Файлы для обмена на трекере предоставлены пользователями сайта, и администрация не несет ответственности за их содержание. Просьба не заливать файлы, защищенные авторскими правами, а также файлы нелегального содержания!