[ Сегодня идет свободное скачивание без начисления Download ]


Статистика раздачи
Нет
 
   
 
Top  
 
 
-Кайт / Kite (2014) BDRip- Год выпуска: 2014
Производство: США, ЮАР - Videovision Entertainment, Distant Horizon, Detalle Films
Жанр: Боевик
Режиссер: Ральф Зиман
Актеры: Индия Айсли, Сэмюэл Л. Джексон, Каллэн МакОлифф, Карл Бьюкс, Деон Лотз, Девилль Ванник, Теренс Бриджетт, Рассел Савадье, Лайонел Ньютон, Джеко Мюллер
Описание фильма: Кайт - имя юной сироты-мстительницы. Давным-давно её родителей убил мафиози. Повзрослев и заручившись поддержкой лучшего друга отца Кайт встаёт на праведный путь мщения. Притворившись девицей лёгкого поведения Кайт ловит и пытает предполагаемых "шестёрок" главаря местной банды. Получив нужные сведения, она проникает в самые злачные районы города, в надежде добраться до местного воротилы теневого бизнеса. По пути отважная девушка переживёт немало разочарований. Но стоит ли ворошить прошлое, ведь всё может быть не так, как казалось в первый раз...
Перевод: Дублированный (R5)
Субтитры: Отсутствуют

Дата мировой премьеры: 13 июня 2014
Дата российской премьеры: 12 июня 2014
Продолжительность: 01:29:40
Качество видео: BDRip
Видеокодек: MPEG-4 AVC/H.264
Битрейт видео: ~11.4 Мбит/сек, 23.976 fps, 0.308 bit/pixel
Размер кадра: 1920х808
Аудио 1: AC3 5.1, 384 kbps - Русский
Аудио 2: DTS 5.1, 768 kbps - Английский

MediaInfo

Общее
Уникальный идентификатор                 : 189735160948419796750374437012987887070 (0x8EBDA9AD16A12ECC9B43A777015EBDDE)
Полное имя                               : D:\Фильмы\Kite.2014.3D.D.BDRip.1080p.mkv
Формат                                   : Matroska
Версия формата                           : Version 2
Размер файла                             : 7,89 Гбайт
Продолжительность                        : 1 ч. 29 м.
Общий поток                              : 12,6 Мбит/сек
Дата кодирования                         : UTC 2014-11-10 16:20:21
Программа кодирования                    : mkvmerge v5.8.0 ('No Sleep / Pillow') built on Sep  2 2012 15:37:04
Библиотека кодирования                   : libebml v1.2.3 + libmatroska v1.3.0
Видео
Идентификатор                            : 1
Формат                                   : AVC
Формат/Информация                        : Advanced Video Codec
Профиль формата                          : [url=mailto:High@L4.1]High@L4.1[/url]
Параметр CABAC формата                   : Да
Параметр ReFrames формата                : 5 кадров
Идентификатор кодека                     : V_MPEG4/ISO/AVC
Продолжительность                        : 1 ч. 29 м.
Битрейт                                  : 11,4 Мбит/сек
Ширина                                   : 1920 пикселей
Высота                                   : 808 пикселей
Соотношение сторон                       : 2,40:1
Режим частоты кадров                     : Постоянный
Частота кадров                           : 23,976 кадра/сек
Цветовое пространство                    : YUV
Субдискретизация насыщенности            : 4:2:0
Битовая глубина                          : 8 бит
Тип развёртки                            : Прогрессивная
Бит/(Пиксели*Кадры)                      : 0.308
Размер потока                            : 7,02 Гбайт (89%)
Библиотека кодирования                   : x264 core 142 r2479 dd79a61
Настройки программы                      : cabac=1 / ref=5 / deblock=1:-3:-3 / analyse=0x3:0x133 / me=umh / subme=8 / psy=1 / psy_rd=1.00:0.15 / mixed_ref=1 / me_range=16 / chroma_me=1 / trellis=1 / 8x8dct=1 / cqm=0 / deadzone=21,11 / fast_pskip=0 / chroma_qp_offset=-3 / threads=12 / lookahead_threads=2 / sliced_threads=0 / nr=0 / decimate=1 / interlaced=0 / bluray_compat=0 / constrained_intra=0 / bframes=3 / b_pyramid=2 / b_adapt=2 / b_bias=0 / direct=3 / weightb=1 / open_gop=0 / weightp=2 / keyint=240 / keyint_min=24 / scenecut=40 / intra_refresh=0 / rc_lookahead=50 / rc=2pass / mbtree=1 / bitrate=11449 / ratetol=1.0 / qcomp=0.60 / qpmin=0 / qpmax=69 / qpstep=4 / cplxblur=20.0 / qblur=0.5 / ip_ratio=1.40 / aq=1:1.00
Язык                                     : English
Default                                  : Да
Forced                                   : Нет
Аудио #1
Идентификатор                            : 2
Формат                                   : AC-3
Формат/Информация                        : Audio Coding 3
Расширение режима                        : CM (complete main)
Параметр Endianness формата              : Big
Идентификатор кодека                     : A_AC3
Продолжительность                        : 1 ч. 29 м.
Вид битрейта                             : Постоянный
Битрейт                                  : 384 Кбит/сек
Каналы                                   : 6 каналов
Расположение каналов                     : Front: L C R, Side: L R, LFE
Частота                                  : 48,0 КГц
Битовая глубина                          : 16 бит
Метод сжатия                             : С потерями
Размер потока                            : 246 Мбайт (3%)
Заголовок                                : AC3 5.1 @ 384 kbps - Dub, R5
Язык                                     : Russian
Default                                  : Да
Forced                                   : Нет
Аудио #2
Идентификатор                            : 3
Формат                                   : DTS
Формат/Информация                        : Digital Theater Systems
Режим                                    : 16
Параметр Endianness формата              : Big
Идентификатор кодека                     : A_DTS
Продолжительность                        : 1 ч. 29 м.
Вид битрейта                             : Постоянный
Битрейт                                  : 768 Кбит/сек
Каналы                                   : 6 каналов
Расположение каналов                     : Front: L C R, Side: L R, LFE
Частота                                  : 48,0 КГц
Битовая глубина                          : 24 бит
Метод сжатия                             : С потерями
Размер потока                            : 493 Мбайт (6%)
Заголовок                                : DTS
Язык                                     : English
Default                                  : Нет
Forced                                   : Нет
Меню
00:00:00.000                             : en:00:00:00.000
00:04:39.029                             : en:00:04:39.029
00:10:09.984                             : en:00:10:09.984
00:18:20.933                             : en:00:18:20.933
00:26:21.955                             : en:00:26:21.955
00:34:01.957                             : en:00:34:01.957
00:38:40.944                             : en:00:38:40.944
00:46:41.966                             : en:00:46:41.966
00:52:40.991                             : en:00:52:40.991
01:03:40.984                             : en:01:03:40.984
01:13:40.958                             : en:01:13:40.958
01:24:00.911                             : en:01:24:00.911
Скриншоты: Время раздачи: Круглосуточно (До 5-ти скачавших)

[Цитировать]



Показать сообщения:    

Текущее время: 10-Дек 06:05

Часовой пояс: UTC + 3


Вы не можете начинать темы
Вы не можете отвечать на сообщения
Вы не можете редактировать свои сообщения
Вы не можете удалять свои сообщения
Вы не можете голосовать в опросах
Вы не можете прикреплять файлы к сообщениям
Вы не можете скачивать файлы

!ВНИМАНИЕ!
Сайт не предоставляет электронные версии произведений, а занимается лишь коллекционированием и каталогизацией ссылок, присылаемых и публикуемых на форуме нашими читателями. Если вы являетесь правообладателем какого-либо представленного материала и не желаете, чтобы ссылка на него находилась в нашем каталоге, свяжитесь с нами, и мы незамедлительно удалим ее. Файлы для обмена на трекере предоставлены пользователями сайта, и администрация не несет ответственности за их содержание. Просьба не заливать файлы, защищенные авторскими правами, а также файлы нелегального содержания!