[ Сегодня идет свободное скачивание без начисления Download ]


Статистика раздачи
Нет
 
   
 
Top  
 
 
-Легавый-2 (2014) WEB-DLRip[H.264] - Русское название: Легавый-2
Производство: Россия, Star Media, НТВ
Год выпуска: 2014
Жанр: Детектив
Режиссер: Олег Фомин
Актеры: Николай Козак, Эдуард Флёров, Михаил Горевой, Михаил Павлик, Андрей Гусев, Елена Полякова, Елена Мольченко, Екатерина Олькина, Дмитрий Горевой, Павел Ясенок, Максим Щёголев, Олег Данилевский, Олег Флеер, Евгений Смирнов-Иваницкий, Игорь Воробьёв, Евгений Березовский, Олег Фомин, Артурс Пуполс-Кочаневский, Владислав Резник, Владимир Бадов, Сергей Макаров, Артур Бичахчян, Александр Шишкин (IV), Александр Негреба, Андрей Копытов, Андрей Костюк, Александр Мынто, Аристарх Венес, Михаил Васьков, Сергей Шарифуллин, Дмитрий Дёмин, Сергей Беляев, Юрий Осипов, Полина Борунова, Михаил Асанкин, Мария Бородина (II)
Описание фильма:
События второго сезона разворачиваются в период с лета 1953-го до весны 1954-го. Советский народ победил в Великой Отечественной, но дома осталась другая война… Холодным летом 53-го война с бандитизмом будет продолжаться от Москвы до самых до окраин. С бандитами будет покончено, и враг будет разбит! Главный герой — Легавый, он же Юрий Козырев — по-прежнему работает в одном из отделений милиции города Петрово Московской области. Его жизнь была налажена и размерена до тех пор, пока в стране не началась широкомасштабная амнистия. Из лагерей вышли тысячи матерых уголовников, большинство из которых направились в столицу, пытаясь по пути «прибарахлиться» — поживиться краденым. Это значит только одно — на долю Козырева опять придется много работы.Но кроме разборок с рядовыми бандитами Юрию предстоит встретиться со старым врагом по фамилии Павливкер, которого он отправил в лагерь пять лет назад. Павливкера тоже амнистировали, восстановили в силовых структурах и назначили на ответственную должность. Теперь он пытается избавиться от Козырева с помощью служебных полномочий. Эта беспощадная война с бандитами унесет не одну жизнь, беда придет и в дом Козырева. После гибели жены Полины ему придется одному воспитывать приемного сына...- -Продолжительность: ~00:45:00 серия
Качество видео: WEB-DLRip
Видеокодек: AVC/H.264
Битрейт видео: ~2000 kbps
Размер кадра: 1024х576 (16:9)
Аудио: 48 kHz, АС-3, 2 ch, Front: L R ~192.00 kbps avg

MediaInfo:

Общее
Уникальный идентификатор : 254966805469271815506785931672292476879 (0xBFD0D20F6BB8E83A8B5CE31372C0C7CF)
Полное имя : D:\сереалы\Legavyy-2.2014.WEB-DLRip.(AVC)\Legavyy-2.(01.seriya).2014.WEB-DLRip.(AVC).mkv
Формат : Matroska
Версия формата : Version 2
Размер файла : 719 Мбайт
Продолжительность : 45 м.
Режим общего битрейта : Постоянный
Общий поток : 2188 Кбит/сек
Название фильма : Legavyy-2.(01.seriya).2014.WEB-DLRip.(AVC).MediaClub
Дата кодирования : UTC 2014-11-10 19:22:37
Программа кодирования : mkvmerge v5.8.0 ('No Sleep / Pillow') built on Sep 2 2012 15:37:04
Библиотека кодирования : libebml v1.2.3 + libmatroska v1.3.0
Видео
Идентификатор : 1
Формат : AVC
Формат/Информация : Advanced Video Codec
Профиль формата : Main@L4.1
Параметр CABAC формата : Да
Параметр ReFrames формата : 2 кадра
Идентификатор кодека : V_MPEG4/ISO/AVC
Продолжительность : 45 м.
Вид битрейта : Постоянный
Битрейт : 2000 Кбит/сек
Ширина : 1024 пикселя
Высота : 576 пикселей
Соотношение сторон : 16:9
Режим частоты кадров : Постоянный
Частота кадров : 25,000 кадров/сек
Цветовое пространство : YUV
Субдискретизация насыщенности : 4:2:0
Битовая глубина : 8 бит
Тип развёртки : Прогрессивная
Бит/(Пиксели*Кадры) : 0.136
Размер потока : 641 Мбайт (89%)
Default : Да
Forced : Да
Аудио
Идентификатор : 2
Формат : AC-3
Формат/Информация : Audio Coding 3
Расширение режима : CM (complete main)
Параметр Endianness формата : Big
Идентификатор кодека : A_AC3
Продолжительность : 45 м.
Вид битрейта : Постоянный
Битрейт : 192 Кбит/сек
Каналы : 2 канала
Расположение каналов : Front: L R
Частота : 48,0 КГц
Битовая глубина : 16 бит
Метод сжатия : С потерями
Размер потока : 63,0 Мбайт (9%)
Язык : Russian
Default : Да
Forced : Да

Внимание! Раздача ведётся путём добавления новых серий

Внимание! Раздача ведётся путём добавления новых серий; при каждом добавлении создаётся новый торрент.
Чтобы начать докачку новой серии, пользователям необходимо сделать следующее:
1. Остановить скачивание;
2. Удалить старый торрент у себя из клиента (старые серии удалять не надо);
3. Скачать новый торрент и запустить его у себя в клиенте вместо старого, при этом указать клиенту путь в старую папку куда и должно происходить скачивание новых серий. Ваш клиент при этом должен произвести хеширование (проверку) старой папки и будет докачивать только те серии, которых у вас ещё нет. Старые серии при этом не удаляются, а продолжают раздаваться! Eсли вы уже удалили старые серии, то предотвратить повторную закачку старых серий можно, отжав галочку в соответствующих местах при запуске нового торрента.
Скриншоты: -Время раздачи: По возможности. До первых 5 сидов.

[Цитировать]



Показать сообщения:    

Текущее время: 07-Дек 19:24

Часовой пояс: UTC + 3


Вы не можете начинать темы
Вы не можете отвечать на сообщения
Вы не можете редактировать свои сообщения
Вы не можете удалять свои сообщения
Вы не можете голосовать в опросах
Вы не можете прикреплять файлы к сообщениям
Вы не можете скачивать файлы

!ВНИМАНИЕ!
Сайт не предоставляет электронные версии произведений, а занимается лишь коллекционированием и каталогизацией ссылок, присылаемых и публикуемых на форуме нашими читателями. Если вы являетесь правообладателем какого-либо представленного материала и не желаете, чтобы ссылка на него находилась в нашем каталоге, свяжитесь с нами, и мы незамедлительно удалим ее. Файлы для обмена на трекере предоставлены пользователями сайта, и администрация не несет ответственности за их содержание. Просьба не заливать файлы, защищенные авторскими правами, а также файлы нелегального содержания!