[ Сегодня идет свободное скачивание без начисления Download ]


Статистика раздачи
Нет
 
   
 
Top  
 
 
- Пятницкий. Глава четвёртая (2014) SATRip - Режиссер / Телекомпания: НТВ & Украина
Русское название: Пятницкий
Год выпуска: 2014
Жанр: Детектив, Драма, Криминал
Премьера новой полицейской драмы - 03 ноября на НТВ.
Описание:
В четвертой главе сотрудникам «Пятницкого» противостоит новая сила: принципиальный сотрудник прокуратуры поставил перед собой цель разоблачить коррумпированную полицейскую группу, которую возглавляет Зимина. В конце концов, нашим героям предстоит осознать, насколько далеко они зашли, и от окончательного падения их будет отделять решающее голосование: убить или нет ради собственной безопасности достойного соперника, который не заслуживает смерти даже по их понятиям. Меж тем крепкие отношения в группе пошатнутся. Выдержат ли сотрудники «Пятницкого» очередную проверку на прочность и удастся ли Зиминой выйти сухой из воды, сохранив при этом друзей и человеческий облик?
Актеры: Дмитрий Мазуров, Виктория Тарасова, Владислав Котлярский, Денис Рожков, Анна Липко, Антон Батырев, Георгий Тополага, Андрей Сорока, Антон Афанасьев, Сергей Гурьев, Павел Мисаилов, Сандра Элиава, Игорь Стам, Роман Гапанюк, Мария Рассказова, Степан Рожнов, Денис Жариков, Дмитрий Фрид, Федор Румянцев, Валерий Новиков, Дарья Щербакова, Ольга Юрасова, Ольга Ефремова (III), Ирина Ивинская, Карина Реука, Артём Киселёв, Максим Январев
Режиссер: Алексей Шелыгин
Продолжительность: Каждая серия ~ 00:45:00
Видеокодек: XviD
Битрейт видео: ~1800 kb/s
Размер кадра: 720 x 384
Качество видео: SATRip
Аудиокодек: MP3, 2ch
Битрейт аудио: 128 kb/s

Список серий:

MediaInfo

Формат : AVI
Формат/Информация : Audio Video Interleave
Размер файла : 615 Мбайт
Продолжительность : 44 м.
Общий поток : 1932 Кбит/сек
Программа кодирования : VirtualDubMod 1.5.10.2 (build 2540/release)
Библиотека кодирования : VirtualDub build 29808/release
Видео
Идентификатор : 0
Формат : MPEG-4 Visual
Профиль формата : Advanced [email protected]
Параметр BVOP формата : 2
Параметр QPel формата : Нет
Параметр GMC формата : Без точки перехода
Параметр матрицы формата : Default (H.263)
Режим смешивания : Сжатый битовый поток
Идентификатор кодека : XVID
Идентификатор кодека/Подсказка : XviD
Продолжительность : 44 м.
Битрейт : 1794 Кбит/сек
Ширина : 720 пикселей
Высота : 384 пикселя
Соотношение сторон : 1,85:1
Частота кадров : 25,000 кадров/сек
Цветовое пространство : YUV
Субдискретизация насыщенности : 4:2:0
Битовая глубина : 8 бит
Тип развёртки : Прогрессивная
Метод сжатия : С потерями
Бит/(Пиксели*Кадры) : 0.260
Размер потока : 571 Мбайт (93%)
Библиотека кодирования : XviD 66
Аудио
Идентификатор : 1
Формат : MPEG Audio
Версия формата : Version 1
Профиль формата : Layer 3
Режим : Joint stereo
Расширение режима : MS Stereo
Идентификатор кодека : 55
Идентификатор кодека/Подсказка : MP3
Продолжительность : 44 м.
Вид битрейта : Постоянный
Битрейт : 128 Кбит/сек
Каналы : 2 канала
Частота : 48,0 КГц
Метод сжатия : С потерями
Размер потока : 40,7 Мбайт (7%)
Выравнивание : Соединение по промежуткам
Продолжительность промежутка : 40 мс. (1,00 видеокадр)
Время предзагрузки промежутка : 504 мс.
Библиотека кодирования : LAME3.90.3ЄЄЄЄЄЄЄЄЄЄ

Внимание! Раздача ведётся путём добавления новых серий

Внимание! Раздача ведётся путём добавления новых серий; при каждом добавлении создаётся новый торрент.
Чтобы начать докачку новой серии, пользователям необходимо сделать следующее:
1. Остановить скачивание;
2. Удалить старый торрент у себя из клиента (старые серии удалять не надо);
3. Скачать новый торрент и запустить его у себя в клиенте вместо старого, при этом указать клиенту путь в старую папку куда и должно происходить скачивание новых серий. Ваш клиент при этом должен произвести хеширование (проверку) старой папки и будет докачивать только те серии, которых у вас ещё нет. Старые серии при этом не удаляются, а продолжают раздаваться! Eсли вы уже удалили старые серии, то предотвратить повторную закачку старых серий можно, отжав галочку в соответствующих местах при запуске нового торрента.
Скриншоты: Время раздачи: 24/7.До первых 5 скачавших.

[Цитировать]



Показать сообщения:    

Текущее время: 04-Дек 09:04

Часовой пояс: UTC + 3


Вы не можете начинать темы
Вы не можете отвечать на сообщения
Вы не можете редактировать свои сообщения
Вы не можете удалять свои сообщения
Вы не можете голосовать в опросах
Вы не можете прикреплять файлы к сообщениям
Вы не можете скачивать файлы

!ВНИМАНИЕ!
Сайт не предоставляет электронные версии произведений, а занимается лишь коллекционированием и каталогизацией ссылок, присылаемых и публикуемых на форуме нашими читателями. Если вы являетесь правообладателем какого-либо представленного материала и не желаете, чтобы ссылка на него находилась в нашем каталоге, свяжитесь с нами, и мы незамедлительно удалим ее. Файлы для обмена на трекере предоставлены пользователями сайта, и администрация не несет ответственности за их содержание. Просьба не заливать файлы, защищенные авторскими правами, а также файлы нелегального содержания!