[ Сегодня идет свободное скачивание без начисления Download ]


Статистика раздачи
Нет
 
   
 
Top  
 
 
Марьина роща- -Год выпуска: 2012
Производство: Мостелефильм
Дистрибьютор: «Русское счастье Энтертеймент»
Жанр: драма, детектив, история
Продолжительность: 720 мин.
Субтитры: нет-Режиссёр: Александр Хван-В ролях:
Александр Домогаров, Евгения Крюкова, Виталий Кудрявцев, Сергей Комаров (II), Савва Гусев, Елена Доронина (IV), Яна Львова, Наталья Литвинова, Виктор Тереля, Дмитрий Смирнов (V), Артем Лысков, Виталий Горшков, Виктор Маркин (II), Олег Алмазов, Сергей Потапов (II), Юрий Шлыков, Борис Романов, Константин Желдин, Петр Зайченко, Ольга Науменко, Татьяна Мухина (III), Егор Баринов, Людмила Давыдова (II), Ирина Гордина, Полина Лунегова, Татьяна Чернопятова, Алексей Михайлов (II), Ксения Баринова, Игорь Филиппов, Дмитрий Гусев, Евгений Харланов, Михаил Горский, Анастасия Платонова, Сергей Дьячков, Константин Глушков, Михаил Солодко, Максим Макаров, Игорь Огурцов-Описание:
Вернувшись после победы с фронта оперативник МУРА Константин Трошин узнает, что там он больше не работает. А причина — в конфликте с влиятельным генералом НКГБ. Но Трошин не намерен отступать, так как без работы в органах жизнь его теряет всякий смысл. Он устраивается на работу в самом неблагополучном районе Москвы — Марьиной Роще. И там же из-зи личных проблем поселиться жить в коммуналке. Таким образом, Трошин оказался в самом центре криминальной среды. Он тесно сходится с ее обитателями. И, может быть, из-за этого ему удается раскрывать самые дерзкие и хладнокровные преступления. Убийства, налеты и аферы — здесь не в новинку. Но Трошин хочет идти дальше и искоренить преступление как таковое. А люди в ответ на его желание идут к нему, как третейскому судье, они доверяют ему, когда надо отделять добро от зла.-Доп. информация:
ИСХОДНИК
При помощи DVD Remake Pro для удобства просмотра удалены заставки, предупреждения, реклама
Исходник поделен на 4 DVD5 по 4 серии на каждом диске
Навигация диска сохранена, нерабочие кнопки заблокированы
Общее сжатие - 0 %.-
Софт
DVD Remake Pro
-Возраст: 16+-Все раздачи сериала-Качество: 4 х DVD5
Формат: DVD-Video

Видео: PAL 16:9 (720x576) VBR, Auto Letterboxed
Аудио: Russian (Dolby AC3, 2 ch) 96 Kbps
-Подробные технические данные
MediaInfo
General
Complete name : F:\Марьина роща (16 серий из 16) 4 x DVD5\DVD 2\VIDEO_TS\VTS_01_1.VOB
Format : MPEG-PS
File size : 1 024 MiB
Duration : 4mn 4s
Overall bit rate : 35.1 Mbps
Writing library : |HCenc 0.24.0.0 - (c) 2004/2010|
Video
ID : 224 (0xE0)
Format : MPEG Video
Format version : Version 2
Format profile : Main@Main
Format settings, BVOP : Yes
Format settings, Matrix : Default
Format settings, GOP : N=1
Duration : 4mn 4s
Bit rate mode : Variable
Bit rate : 34.3 Mbps
Width : 720 pixels
Height : 576 pixels
Display aspect ratio : 2.35:1
Frame rate : 25.000 fps
Standard : PAL
Color space : YUV
Chroma subsampling : 4:2:0
Bit depth : 8 bits
Scan type : Progressive
Bits/(Pixel*Frame) : 3.313
Stream size : 1 001 MiB (98%)
Writing library : |HCenc 0.24.0.0 - (c) 2004/2010|
Audio
ID : 128 (0x80)
Format : AC-3
Format/Info : Audio Coding 3
Mode extension : CM (complete main)
Duration : 4mn 4s
Bit rate mode : Constant
Bit rate : 96.0 Kbps
Channel(s) : 2 channels
Channel positions : Front: L R
Sampling rate : 48.0 KHz
Bit depth : 16 bits
Video delay : -7ms
Stream size : 2.79 MiB (0%)
Menu

-
DVDInfo DVD1
Size: 3.71 Gb ( 3 893 232 KBytes ) - DVD-5
Enabled regions: 1, 2, 3, 4, 5, 6, 7, 8
VTS_01 :
Play Length: 00:44:45+00:44:26+00:44:16+00:44:36+00:00:03
Video: PAL 16:9 (720x576) VBR, Auto Letterboxed
Audio:
Russian (Dolby AC3, 2 ch)
Menu Video:
PAL 16:9 (720x576) VBR
Auto Letterboxed
Menu Audio:
Not specified (Dolby AC3, 2 ch)
Menu Subtitles:
Not specified
Menu English Language Unit :
Root Menu
Subpicture Menu
Angle menu
Chapter (PTT) Menu
Audio #1: AC3, 2/0 ch, 96Kbps, Delay 0 mSec
DVDInfo DVD2
Size: 3.72 Gb ( 3 902 526 KBytes ) - DVD-5
Enabled regions: 1, 2, 3, 4, 5, 6, 7, 8
VTS_01 :
Play Length: 00:00:03+00:00:04+00:44:06+00:44:41+00:44:53+00:44:48
Video: PAL 16:9 (720x576) VBR, Auto Letterboxed
Audio:
Russian (Dolby AC3, 2 ch)
Menu Video:
PAL 16:9 (720x576) VBR
Auto Letterboxed
Menu Audio:
Not specified (Dolby AC3, 2 ch)
Menu Subtitles:
Not specified
Menu English Language Unit :
Root Menu
Audio #1: AC3, 2/0 ch, 96Kbps, Delay 0 mSec
DVDInfo DVD3
Size: 3.19 Gb ( 3 344 780 KBytes ) - DVD-5
Enabled regions: 1, 2, 3, 4, 5, 6, 7, 8
VTS_01 :
Play Length: 00:44:28+00:44:34+00:44:15+00:44:29+00:00:03
Video: PAL 16:9 (720x576) VBR, Auto Letterboxed
Audio:
Russian (Dolby AC3, 2 ch)
Menu Video:
PAL 16:9 (720x576) VBR
Auto Letterboxed
Menu Audio:
Not specified (Dolby AC3, 2 ch)
Menu Subtitles:
Not specified
Menu English Language Unit :
Root Menu
Audio #1: AC3, 2/0 ch, 96Kbps, Delay 0 mSec
DVDInfo DVD4
Size: 3.22 Gb ( 3 373 394 KBytes ) - DVD-5
Enabled regions: 1, 2, 3, 4, 5, 6, 7, 8
VTS_01 :
Play Length: 00:00:03+00:44:31+00:44:10+00:44:26+00:44:43
Video: PAL 16:9 (720x576) VBR, Auto Letterboxed
Audio:
Russian (Dolby AC3, 2 ch)
Menu Video:
PAL 16:9 (720x576) VBR
Auto Letterboxed
Menu Audio:
Not specified (Dolby AC3, 2 ch)
Menu Subtitles:
Not specified
Menu English Language Unit :
Root Menu
Audio #1: AC3, 2/0 ch, 96Kbps, Delay 0 mSec

-
Скриншоты меню
-
Скриншоты сериала
Скриншоты сериала DVD1 Скриншоты сериала DVD2 Скриншоты сериала DVD3 Скриншоты сериала DVD4 -Раздаю до первых 5-ти скачавших, на раздачи не возвращаюсь...-

[Цитировать]



Показать сообщения:    

Текущее время: 07-Дек 17:20

Часовой пояс: UTC + 3


Вы не можете начинать темы
Вы не можете отвечать на сообщения
Вы не можете редактировать свои сообщения
Вы не можете удалять свои сообщения
Вы не можете голосовать в опросах
Вы не можете прикреплять файлы к сообщениям
Вы не можете скачивать файлы

!ВНИМАНИЕ!
Сайт не предоставляет электронные версии произведений, а занимается лишь коллекционированием и каталогизацией ссылок, присылаемых и публикуемых на форуме нашими читателями. Если вы являетесь правообладателем какого-либо представленного материала и не желаете, чтобы ссылка на него находилась в нашем каталоге, свяжитесь с нами, и мы незамедлительно удалим ее. Файлы для обмена на трекере предоставлены пользователями сайта, и администрация не несет ответственности за их содержание. Просьба не заливать файлы, защищенные авторскими правами, а также файлы нелегального содержания!