[ Сегодня идет свободное скачивание без начисления Download ]


Статистика раздачи
Нет
 
   
 
Top  
 
 
Ангелы войны- -Год выпуска: 2012
Дистрибьютор: «Lizard Cinema Trade»
Производство: FILM.UA, WISEVISION
Жанр: драма, военный
Продолжительность: 180 мин.
Субтитры: нет-Режиссёр: Татьяна Ходаковская-В ролях:
Богдан Бенюк, Матвей Зубалевич, Александра Тюфтей, Наталья Бузько, Кирилл Полухин,
Алексей Шемес, Валентин Касьян, Игорь Гнездилов, Эдуард Безродный, Борис Георгиевский-Описание:
Во время войны на оккупированной территории организован фильтрационный немецкий лагерь «Надежда», где проводят опыты над детьми. Особой ценностью считаются близнецы — самый ценный материал для опытов. И когда из лагеря удается бежать одному из близнецов, немцы поднимают тревогу, пытаясь отыскать сбежавшего мальчишку. Это усложняет жизнь и жителям ближайшего села, и партизанскому отряду, и даже местным полицаям. В центре развития событий жизнь маленького Пети и трогательная история любви молодой пары — полицая Андрея и дочки старосты Нины. Герои раз за разом сталкиваются со смертью близких, противостоянием, недоверием и обманом. Те, кто еще вчера были друзьями, становятся самыми опасными врагами, а те, кому вчера не подали бы руки, откроются с новой стороны.-Доп. информация:
ИСХОДНИК
При помощи DVD Remake Pro для удобства просмотра удалены заставки, предупреждения
Исходник поделен на 2 DVD5 по 2 серии на каждом диске
Навигация диска сохранена, нерабочие кнопки заблокированы
Общее сжатие - 0 %.-
Софт
DVD Remake Pro
-Все раздачи сериала-Качество: 2 х DVD5
Формат: DVD-Video

Видео: PAL 16:9 (720x576) VBR Auto Letterboxed
Аудио: Russian (Dolby AC3, 2 ch) 192 kbps
-MediaInfo
General
Complete name : F:\Ангелы войны (4 серии из 4) 2 х DVD5\DVD 2\VIDEO_TS\VTS_04_1.VOB
Format : MPEG-PS
File size : 1 024 MiB
Duration : 28mn 8s
Overall bit rate : 5 088 Kbps
Video
ID : 224 (0xE0)
Format : MPEG Video
Format version : Version 2
Format profile : Main@Main
Format settings, BVOP : Yes
Format settings, Matrix : Default
Duration : 28mn 8s
Bit rate mode : Variable
Bit rate : 4 795 Kbps
Nominal bit rate : 8 000 Kbps
Width : 720 pixels
Height : 576 pixels
Display aspect ratio : 16:9
Frame rate : 25.000 fps
Standard : PAL
Color space : YUV
Chroma subsampling : 4:2:0
Bit depth : 8 bits
Scan type : Progressive
Bits/(Pixel*Frame) : 0.462
Stream size : 965 MiB (94%)
Audio
ID : 128 (0x80)
Format : AC-3
Format/Info : Audio Coding 3
Mode extension : CM (complete main)
Duration : 28mn 7s
Bit rate mode : Constant
Bit rate : 192 Kbps
Channel(s) : 2 channels
Channel positions : Front: L R
Sampling rate : 48.0 KHz
Bit depth : 16 bits
Stream size : 38.6 MiB (4%)
Menu

-
DVDInfo DVD1
Size: 3.84 Gb ( 4 026 768 KBytes ) - DVD-5
Enabled regions: 1, 2, 3, 4, 5, 6, 7, 8
VTS_01 :
Play Length:
Video: PAL 4:3 (720x576) VBR
Audio:
Russian (Dolby AC3, 6 ch)
English (Dolby AC3, 6 ch)
English (Dolby AC3, 6 ch)
VTS_02 :
Play Length: 00:49:00
Video: PAL 16:9 (720x576) VBR, Auto Pan&Scan, Auto Letterboxed
Audio:
Russian (Dolby AC3, 2 ch)
VTS_03 :
Play Length: 00:50:26
Video: PAL 16:9 (720x576) VBR, Auto Pan&Scan, Auto Letterboxed
Audio:
Russian (Dolby AC3, 2 ch)
VTS_04 :
Play Length: 00:00:02
Video: PAL 16:9 (720x576) VBR, Auto Pan&Scan, Auto Letterboxed
Audio:
Russian (Dolby AC3, 2 ch)
VTS_05 :
Play Length: 00:00:02
Video: PAL 16:9 (720x576) VBR, Auto Pan&Scan, Auto Letterboxed
Audio:
Russian (Dolby AC3, 2 ch)
Menu Video:
NTSC 4:3 (720x480) VBR
Auto Pan&Scan, Auto Letterboxed
Menu English Language Unit :
Root Menu
Chapter (PTT) Menu
Audio #1: AC3, 2/0 (L,R) ch, 192 kbps, Delay 0 mSec
DVDInfo DVD2
Size: 3.91 Gb ( 4 096 550 KBytes ) - DVD-5
Enabled regions: 1, 2, 3, 4, 5, 6, 7, 8
VTS_01 :
Play Length:
Video: PAL 4:3 (720x576) VBR
Audio:
Russian (Dolby AC3, 6 ch)
English (Dolby AC3, 6 ch)
English (Dolby AC3, 6 ch)
VTS_02 :
Play Length: 00:00:02
Video: PAL 16:9 (720x576) VBR, Auto Pan&Scan, Auto Letterboxed
Audio:
Russian (Dolby AC3, 2 ch)
VTS_03 :
Play Length: 00:00:02
Video: PAL 16:9 (720x576) VBR, Auto Pan&Scan, Auto Letterboxed
Audio:
Russian (Dolby AC3, 2 ch)
VTS_04 :
Play Length: 00:50:13
Video: PAL 16:9 (720x576) VBR, Auto Pan&Scan, Auto Letterboxed
Audio:
Russian (Dolby AC3, 2 ch)
VTS_05 :
Play Length: 00:51:00
Video: PAL 16:9 (720x576) VBR, Auto Pan&Scan, Auto Letterboxed
Audio:
Russian (Dolby AC3, 2 ch)
Menu Video:
NTSC 4:3 (720x480) VBR
Auto Pan&Scan, Auto Letterboxed
Menu English Language Unit :
Root Menu
Chapter (PTT) Menu
Audio #1: AC3, 2/0 (L,R) ch, 192 kbps, Delay 0 mSec

-
Скриншоты меню
-
Скриншоты сериала DVD1 Скриншоты сериала DVD2 -Раздаю до первых 5-ти скачавших, на раздачи не возвращаюсь...-

[Цитировать]



Показать сообщения:    

Текущее время: 10-Дек 02:13

Часовой пояс: UTC + 3


Вы не можете начинать темы
Вы не можете отвечать на сообщения
Вы не можете редактировать свои сообщения
Вы не можете удалять свои сообщения
Вы не можете голосовать в опросах
Вы не можете прикреплять файлы к сообщениям
Вы не можете скачивать файлы

!ВНИМАНИЕ!
Сайт не предоставляет электронные версии произведений, а занимается лишь коллекционированием и каталогизацией ссылок, присылаемых и публикуемых на форуме нашими читателями. Если вы являетесь правообладателем какого-либо представленного материала и не желаете, чтобы ссылка на него находилась в нашем каталоге, свяжитесь с нами, и мы незамедлительно удалим ее. Файлы для обмена на трекере предоставлены пользователями сайта, и администрация не несет ответственности за их содержание. Просьба не заливать файлы, защищенные авторскими правами, а также файлы нелегального содержания!