[ Сегодня идет свободное скачивание без начисления Download ]


Статистика раздачи
Нет
 
   
 
Top  
 
 
-[sh]Дорогая, похоже, я тебя убил / Kochanie, chyba cie zabilem[/sh] (2014) DVDRip- Год выпуска: 2014
Производство: Польша | PISF, Studio Filmowe Kalejdoskop
Жанр: Комедия
Перевод: Одноголосый закадровый, любительский
Озвучка / Автор перевода: PashaUp
Субтитры: Отсутствуют
Дата мировой премьеры: 4 апреля 2014
Режиссер: Куба Несьчеров
Продюсер: Бартош Куровский, Мацей Майхжак, Куба Несьчеров
Актеры: Збигнев Замаховский, Аркадиуш Якубик, Ирениуш Чоп, Марчин Корч, Анна Карчмарчик, Изабела Куна, Лешек Лихота, Якуб Вичорек, Казимера Утрата
Описание фильма:
Однажды спокойная жизнь примерного семьянина Яна Покойского превращается в кино в жанре «убей и беги». Цепь случайностей приводит к тому, что Покойский, помимо своей воли, становится серийным убийцей. На его след выходят два полицейских-недотепы: Вербовский, грезящий о лаврах Грязного Гарри, и Граш, проходящий курс терапии от многочисленных фобий…

Продолжительность: 01:27:19
Качество видео: DVDRip
Видео: 640x272 (2.35:1), 25 fps, XviD build 50 ~1054 kbps avg, 0.242 bit/pixel
Аудио: 48 kHz, MPEG Layer 3, 2 ch, ~128.00 kbps avg
Сэмпл: Скачать

MediaInfo

General
Complete name                  : E:\фильмы\Dorogaja.pohoge.ja.tebja.ubil.2014.DVDRip.avi
Format                         : AVI
Format/Info                    : Audio Video Interleave
File size                      : 744 MiB
Duration                       : 1h 27mn
Overall bit rate               : 1 192 Kbps
Writing application            : VirtualDubMod 1.5.10.3 | [url=http://www.virtualdub-fr.org]www.virtualdub-fr.org[/url] || (build 2550/release)
Writing library                : VirtualDubMod build 2550/release
Video
ID                             : 0
Format                         : MPEG-4 Visual
Format profile                 : Advanced Simple@L5
Format settings, BVOP          : Yes
Format settings, QPel          : No
Format settings, GMC           : No warppoints
Format settings, Matrix        : Default (H.263)
Codec ID                       : XVID
Codec ID/Hint                  : XviD
Duration                       : 1h 27mn
Bit rate                       : 1 054 Kbps
Width                          : 640 pixels
Height                         : 272 pixels
Display aspect ratio           : 2.35:1
Frame rate                     : 25.000 fps
Color space                    : YUV
Chroma subsampling             : 4:2:0
Bit depth                      : 8 bits
Scan type                      : Progressive
Compression mode               : Lossy
Bits/(Pixel*Frame)             : 0.242
Stream size                    : 658 MiB (88%)
Writing library                : XviD 1.2.1 (UTC 2008-12-04)
Audio
ID                             : 1
Format                         : MPEG Audio
Format version                 : Version 1
Format profile                 : Layer 3
Codec ID                       : 55
Codec ID/Hint                  : MP3
Duration                       : 1h 27mn
Bit rate mode                  : Constant
Bit rate                       : 128 Kbps
Channel(s)                     : 2 channels
Sampling rate                  : 48.0 KHz
Compression mode               : Lossy
Stream size                    : 80.0 MiB (11%)
Alignment                      : Aligned on interleaves
Interleave, duration           : 40 ms (1.00 video frame)
Interleave, preload duration   : 504 ms
Writing library                : LAME3.98r
Encoding settings              : -m s -V 4 -q 2 -lowpass 17 -b 128
Скриншоты:

Время раздачи: 10:00 - 24:00

[Цитировать]



Показать сообщения:    

Текущее время: 10-Дек 13:51

Часовой пояс: UTC + 3


Вы не можете начинать темы
Вы не можете отвечать на сообщения
Вы не можете редактировать свои сообщения
Вы не можете удалять свои сообщения
Вы не можете голосовать в опросах
Вы не можете прикреплять файлы к сообщениям
Вы не можете скачивать файлы

!ВНИМАНИЕ!
Сайт не предоставляет электронные версии произведений, а занимается лишь коллекционированием и каталогизацией ссылок, присылаемых и публикуемых на форуме нашими читателями. Если вы являетесь правообладателем какого-либо представленного материала и не желаете, чтобы ссылка на него находилась в нашем каталоге, свяжитесь с нами, и мы незамедлительно удалим ее. Файлы для обмена на трекере предоставлены пользователями сайта, и администрация не несет ответственности за их содержание. Просьба не заливать файлы, защищенные авторскими правами, а также файлы нелегального содержания!