[ Сегодня идет свободное скачивание без начисления Download ]


Статистика раздачи
Нет
 
   
 
Top  
 
 
-Стрелок / Shooter (2007) BDRemux- Год выпуска: 2007
Производство: США / Paramount Pictures, Di Bonaventura Pictures, Grosvenor Park Impact Productions
Жанр: Боевик, Криминал, Драма
Перевод: Дублированный
Субтитры: Вшитые отключаемые
Язык субтитров: Английский, Эстонский, Латвийский, Литовский, Русский, Украинский
Дата мировой премьеры: 8 марта 2007
Дата российской премьеры: 12 апреля 2007, «UPI»
Дата выхода Blu-Ray релиза: 3 ноября 2009, «Юниверсал Пикчерс Рус»
Режиссер: Антуан Фукуа / Antoine Fuqua
Актеры: Марк Уолберг / Mark Wahlberg, Майкл Пенья / Michael Pe?a, Дэнни Гловер / Danny Glover, Кейт Мара / Kate Mara, Рона Митра / Rhona Mitra, Элиас Котеас / Elias Koteas, Нед Битти / Ned Beatty, Раде Шербеджия / Rade Serbedzija, Джонатан Уолкер / Jonathan Walker, Тейт Донован / Tate Donovan
Описание фильма:Главный герой - бывший снайпер, который уходит в отставку после краха очередной миссии. Вскоре его вынуждают вернуться в армию, где он снова подвергается испытанию. В его теле - две пули. Он становится объектом национальной охоты. И начинает месть, цель которой - низложить самых влиятельных людей страны
Продолжительность: 02:05:41
Качество видео: BDRemux [1080p]
Видео: MPEG-2 Video / 25871 kbps / 1920х1080 / 23,976 fps / 16:9
Аудио 1: Dolby Digital Audio / 640 kbps / 5.1 / 48 kHz | Русский, профессиональный дублированный
Аудио 2: Dolby Digital Audio / 640 kbps / 5.1 / 48 kHz | Украинский, профессиональный дублированный
Аудио 3: Dolby Digital Audio / 640 kbps / 5.1 / 48 kHz | Английский, оригинальная озвучка
Аудио 4: Dolby Digital Audio / 448 kbps / 5.1 / 48 kHz | Русский, Многоголосый /Позитив-Медиа/
Аудио 5: Dolby Digital Audio / 448 kbps / 5.1 / 48 kHz | Русский, Двухголосный авторский /Гланц и Королёва/
Аудио 6: Digital Theater Systems / 755 kbps / 5.1 / 48 kHz | Русский, Одноголосный авторский /B. Королёв/
Аудио 7: Dolby Digital Audio / 384 kbps / 5.1 / 48 kHz | Русский, Одноголосный авторский /A.Гаврилов/
Аудио 8: Dolby Digital Audio / 448 kbps / 5.1 / 48 kHz | Русский, Одноголосый авторский /Ю.Живов/
Аудио 9: Dolby Digital Audio / 192 kbps / 2.0 / 48 kHz | Украинский, Многоголосый /Интер/
Аудио 10: Dolby Digital Audio / 192 kbps / 2.0 / 48 kHz | Английский, комментарии режиссера

MediaInfo & Bitrate Viewer


General
Unique ID : 192873973638759862865496392234248831190 (0x911A2D17030DE53D92883029664E00D6)
Complete name : P:\Стрелок-Shooter.(2007).BDRemux.[1080p].mkv
Format : Matroska
Format version : Version 4 / Version 2
File size : 27.0 GiB
Duration : 2h 5mn
Overall bit rate mode : Variable
Overall bit rate : 30.7 Mbps
Movie name : Стрелок / Shooter (2007) BDRemux [1080p] /nnm-club.me/
Encoded date : UTC 2014-11-23 22:19:32
Writing application : mkvmerge v7.3.0 ('Nouages') 32bit built on Oct 22 2014 18:44:01
Writing library : libebml v1.3.0 + libmatroska v1.4.1
DURATION : 02:05:41.536000000
NUMBER_OF_FRAMES : 235673
NUMBER_OF_BYTES : 180996864
_STATISTICS_WRITING_APP : mkvmerge v7.3.0 ('Nouages') 32bit built on Oct 22 2014 18:44:01
_STATISTICS_WRITING_DATE_UTC : 2014-11-23 22:19:32
_STATISTICS_TAGS : BPS DURATION NUMBER_OF_FRAMES NUMBER_OF_BYTES
Video
ID : 1
Format : MPEG Video
Format version : Version 2
Format profile : Main@High
Format settings, BVOP : No
Format settings, Matrix : Custom
Codec ID : V_MPEG2
Codec ID/Info : MPEG 1 or 2 Video
Duration : 2h 5mn
Bit rate mode : Variable
Bit rate : 25.3 Mbps
Maximum bit rate : 35.0 Mbps
Width : 1 920 pixels
Height : 1 080 pixels
Display aspect ratio : 16:9
Frame rate mode : Constant
Frame rate : 23.976 fps
Color space : YUV
Chroma subsampling : 4:2:0
Bit depth : 8 bits
Scan type : Progressive
Compression mode : Lossy
Bits/(Pixel*Frame) : 0.510
Time code of first frame : 00:00:00:00
Time code source : Group of pictures header
Stream size : 22.2 GiB (82%)
Title : Стрелок / Shooter (2007) BDRemux [1080p] /MPEG-2 Video / 28364 kbps / 1920х1080 / 23,976 fps / 16:9/
Language : English
Default : Yes
Forced : No
Audio #1
ID : 2
Format : AC-3
Format/Info : Audio Coding 3
Mode extension : CM (complete main)
Format settings, Endianness : Big
Codec ID : A_AC3
Duration : 2h 5mn
Bit rate mode : Constant
Bit rate : 640 Kbps
Channel(s) : 6 channels
Channel positions : Front: L C R, Side: L R, LFE
Sampling rate : 48.0 KHz
Bit depth : 16 bits
Compression mode : Lossy
Stream size : 575 MiB (2%)
Title : Дубляж
Language : Russian
Default : Yes
Forced : No
Audio #2
ID : 3
Format : AC-3
Format/Info : Audio Coding 3
Mode extension : CM (complete main)
Format settings, Endianness : Big
Codec ID : A_AC3
Duration : 2h 5mn
Bit rate mode : Constant
Bit rate : 640 Kbps
Channel(s) : 6 channels
Channel positions : Front: L C R, Side: L R, LFE
Sampling rate : 48.0 KHz
Bit depth : 16 bits
Compression mode : Lossy
Stream size : 575 MiB (2%)
Title : Дубляж
Language : Ukrainian
Default : No
Forced : No
Audio #3
ID : 4
Format : AC-3
Format/Info : Audio Coding 3
Mode extension : CM (complete main)
Format settings, Endianness : Big
Codec ID : A_AC3
Duration : 2h 5mn
Bit rate mode : Constant
Bit rate : 640 Kbps
Channel(s) : 6 channels
Channel positions : Front: L C R, Side: L R, LFE
Sampling rate : 48.0 KHz
Bit depth : 16 bits
Compression mode : Lossy
Stream size : 575 MiB (2%)
Title : Оригинальная озвучка
Language : English
Default : No
Forced : No
Audio #4
ID : 5
Format : AC-3
Format/Info : Audio Coding 3
Mode extension : CM (complete main)
Format settings, Endianness : Big
Codec ID : A_AC3
Duration : 2h 5mn
Bit rate mode : Constant
Bit rate : 448 Kbps
Channel(s) : 6 channels
Channel positions : Front: L C R, Side: L R, LFE
Sampling rate : 48.0 KHz
Bit depth : 16 bits
Compression mode : Lossy
Stream size : 403 MiB (1%)
Title : Многоголосый /Позитив-Медиа/
Language : Russian
Default : No
Forced : No
Audio #5
ID : 6
Format : AC-3
Format/Info : Audio Coding 3
Mode extension : CM (complete main)
Format settings, Endianness : Big
Codec ID : A_AC3
Duration : 2h 5mn
Bit rate mode : Constant
Bit rate : 448 Kbps
Channel(s) : 6 channels
Channel positions : Front: L C R, Side: L R, LFE
Sampling rate : 48.0 KHz
Bit depth : 16 bits
Compression mode : Lossy
Stream size : 403 MiB (1%)
Title : Двухголосый авторский /Гланц и Королёва/
Language : Russian
Default : No
Forced : No
Audio #6
ID : 7
Format : DTS
Format/Info : Digital Theater Systems
Mode : 16
Format settings, Endianness : Big
Codec ID : A_DTS
Duration : 2h 5mn
Bit rate mode : Constant
Bit rate : 755 Kbps
Channel(s) : 6 channels
Channel positions : Front: L C R, Side: L R, LFE
Sampling rate : 48.0 KHz
Bit depth : 24 bits
Compression mode : Lossy
Stream size : 678 MiB (2%)
Title : Одноголосый авторский /B. Королёв/
Language : Russian
Default : No
Forced : No
Audio #7
ID : 8
Format : AC-3
Format/Info : Audio Coding 3
Mode extension : CM (complete main)
Format settings, Endianness : Big
Codec ID : A_AC3
Duration : 2h 5mn
Bit rate mode : Constant
Bit rate : 384 Kbps
Channel(s) : 6 channels
Channel positions : Front: L C R, Side: L R, LFE
Sampling rate : 48.0 KHz
Bit depth : 16 bits
Compression mode : Lossy
Stream size : 345 MiB (1%)
Title : Одноголосый авторский /A.Гаврилов/
Language : Russian
Default : No
Forced : No
Audio #8
ID : 9
Format : AC-3
Format/Info : Audio Coding 3
Mode extension : CM (complete main)
Format settings, Endianness : Big
Codec ID : A_AC3
Duration : 2h 5mn
Bit rate mode : Constant
Bit rate : 448 Kbps
Channel(s) : 6 channels
Channel positions : Front: L C R, Side: L R, LFE
Sampling rate : 48.0 KHz
Bit depth : 16 bits
Compression mode : Lossy
Stream size : 403 MiB (1%)
Title : Одноголосый авторский /Ю.Живов/
Language : Russian
Default : No
Forced : No
Audio #9
ID : 10
Format : AC-3
Format/Info : Audio Coding 3
Mode extension : CM (complete main)
Format settings, Endianness : Big
Codec ID : A_AC3
Duration : 2h 5mn
Bit rate mode : Constant
Bit rate : 192 Kbps
Channel(s) : 2 channels
Channel positions : Front: L R
Sampling rate : 48.0 KHz
Bit depth : 16 bits
Compression mode : Lossy
Stream size : 173 MiB (1%)
Title : Многоголосый /Интер/
Language : Ukrainian
Default : No
Forced : No
Audio #10
ID : 11
Format : AC-3
Format/Info : Audio Coding 3
Format profile : Dolby Digital
Mode extension : CM (complete main)
Format settings, Endianness : Big
Codec ID : A_AC3
Duration : 2h 5mn
Bit rate mode : Constant
Bit rate : 192 Kbps
Channel(s) : 2 channels
Channel positions : Front: L R
Sampling rate : 48.0 KHz
Bit depth : 16 bits
Compression mode : Lossy
Stream size : 173 MiB (1%)
Title : Commentary by Antoine Fuqua
Language : English
Default : No
Forced : No
Text #1
ID : 12
Format : PGS
Muxing mode : zlib
Codec ID : S_HDMV/PGS
Codec ID/Info : The same subtitle format used on BDs/HD-DVDs
Language : Russian
Default : No
Forced : No
Text #2
ID : 13
Format : PGS
Muxing mode : zlib
Codec ID : S_HDMV/PGS
Codec ID/Info : The same subtitle format used on BDs/HD-DVDs
Language : Ukrainian
Default : No
Forced : No
Text #3
ID : 14
Format : PGS
Muxing mode : zlib
Codec ID : S_HDMV/PGS
Codec ID/Info : The same subtitle format used on BDs/HD-DVDs
Language : English
Default : No
Forced : No
Text #4
ID : 15
Format : PGS
Muxing mode : zlib
Codec ID : S_HDMV/PGS
Codec ID/Info : The same subtitle format used on BDs/HD-DVDs
Language : Estonian
Default : No
Forced : No
Text #5
ID : 16
Format : PGS
Muxing mode : zlib
Codec ID : S_HDMV/PGS
Codec ID/Info : The same subtitle format used on BDs/HD-DVDs
Language : Latvian
Default : No
Forced : No
Text #6
ID : 17
Format : PGS
Muxing mode : zlib
Codec ID : S_HDMV/PGS
Codec ID/Info : The same subtitle format used on BDs/HD-DVDs
Language : Lithuanian
Default : No
Forced : No
Text #7
ID : 18
Format : PGS
Muxing mode : zlib
Codec ID : S_HDMV/PGS
Codec ID/Info : The same subtitle format used on BDs/HD-DVDs
Title : Commentary by Antoine Fuqua
Language : English
Default : No
Forced : No
Menu #1
00:00:00.000 : en:00:00:00.000
00:08:13.118 : en:00:08:13.118
00:16:22.690 : en:00:16:22.690
00:23:13.309 : en:00:23:13.309
00:31:37.145 : en:00:31:37.145
00:39:02.632 : en:00:39:02.632
00:44:25.246 : en:00:44:25.246
00:51:27.293 : en:00:51:27.293
00:57:52.427 : en:00:57:52.427
01:05:09.739 : en:01:05:09.739
01:11:44.592 : en:01:11:44.592
01:18:00.801 : en:01:18:00.801
01:23:32.299 : en:01:23:32.299
01:29:56.891 : en:01:29:56.891
01:36:00.588 : en:01:36:00.588
01:39:56.657 : en:01:39:56.657
01:50:08.644 : en:01:50:08.644
01:55:31.341 : en:01:55:31.341
02:00:28.930 : en:02:00:28.930
Menu #2
00:00:00.000 : en:00:00:00.000
00:08:13.118 : en:00:08:13.118
00:16:22.690 : en:00:16:22.690
00:23:13.309 : en:00:23:13.309
00:31:37.145 : en:00:31:37.145
00:39:02.632 : en:00:39:02.632
00:44:25.246 : en:00:44:25.246
00:51:27.293 : en:00:51:27.293
00:57:52.427 : en:00:57:52.427
01:05:09.739 : en:01:05:09.739
01:11:44.592 : en:01:11:44.592
01:18:00.801 : en:01:18:00.801
01:23:32.299 : en:01:23:32.299
01:29:56.891 : en:01:29:56.891
01:36:00.588 : en:01:36:00.588
01:39:56.657 : en:01:39:56.657
01:50:08.644 : en:01:50:08.644
01:55:31.341 : en:01:55:31.341
02:00:28.930 : en:02:00:28.930

Дополнительно:

* Фильм снят по мотивам романа Стивена Хантера «Снайпер» (Point of Impact, 1993).
* Портреты в холле, по которому ходят заговорщики в Лэнгли, изображают президентов-республиканцев.
* Специально для роли в данном фильме Марк Уолберг похудел на 20 фунтов (8,7 килограмма).
* Изначально Киану Ривз должен был сыграть главную роль.
* Книга, которую читает Свэггер в своем доме, — отчет специальной комиссии о событиях 11 сентября 2001 года.
* Одна из отрицательных ролей в фильме была предложена Эминему, но он отклонил предложение.
* В одной из сцен фильма на Марке Уолберге надеты кепка и куртка команды «Eagles». В фильме «Преодоление» (2006) персонаж Марка играл за данную команду.
* Стивен Хантер, автор романа, по которому снят фильм, также является кинокритиком в газете «Washington Post».
* В одной из начальных сцен фильма указывается местоположение: Лэнгли, Вирджиния. В этом же месте происходило большинство событий в трилогии про Джейсона Борна.
* Снайперская винтовка главного героя — CheyTac Intervention M200.
* В сцене в Вайоминге, где сенатор стреляет из ружья прямо из-под камеры, снята так, как известный новостной материал с Диком Чейни. Следом сенатор садится возле стола, на котором видна надпись «CMF» (христианская организация, членом которой является Чейни).
* Свеггера ранят в плечо и в правый бок. В одной из сцен в доме Сары на правом боку Свеггера нет следа от раны.
* Когда спецназ захватывает Ника, он роняет телефон на середину мостовой. В следующем кадре нам показывают этот же телефон крупным планом, лежащий у левого края.
* В сцене пытки героя Майкла Пеньи, злодеи наливают ему в рот воду из бутылки. В начале и во время пытки воды в бутылке меньше половины, и злодеи для пытки воду вовсе не жалеют, но в конце бутылка почти полная.

Рецензия:

Получился сильный боевик, если бы не этот пафос на счет патриотизма и чести бойца. Такого давно в живом мире уже нет, есть только деньги и коррупция.
Если смотреть с точки зрения боевика, то к фильму нет никаких претензий. В нем есть все: стрельба, погони, драйв. Но, опять повторюсь, фильм не цепляет.
Очень понравился Марк Уолберг, чья деятельность в кино, не дает умереть такому нужному жанру как боевик. А Майкл Пена, со свей стороны, подбирает достаточно хорошие роли положительных героев в кино, как это было в драмах «Столкновение» и «Башни-близнецы».
7 из 10
Скриншоты:

Время раздачи: 24/7

[Цитировать]



Показать сообщения:    

Текущее время: 07-Дек 23:19

Часовой пояс: UTC + 3


Вы не можете начинать темы
Вы не можете отвечать на сообщения
Вы не можете редактировать свои сообщения
Вы не можете удалять свои сообщения
Вы не можете голосовать в опросах
Вы не можете прикреплять файлы к сообщениям
Вы не можете скачивать файлы

!ВНИМАНИЕ!
Сайт не предоставляет электронные версии произведений, а занимается лишь коллекционированием и каталогизацией ссылок, присылаемых и публикуемых на форуме нашими читателями. Если вы являетесь правообладателем какого-либо представленного материала и не желаете, чтобы ссылка на него находилась в нашем каталоге, свяжитесь с нами, и мы незамедлительно удалим ее. Файлы для обмена на трекере предоставлены пользователями сайта, и администрация не несет ответственности за их содержание. Просьба не заливать файлы, защищенные авторскими правами, а также файлы нелегального содержания!