[ Сегодня идет свободное скачивание без начисления Download ]


Статистика раздачи
Нет
 
   
 
Top  
 
 
-Патруль времени / Предопределение / Predestination (2014) BDRemux [1080p] [VO]- Год выпуска: 2014
Производство: Австралия, Blacklab Entertainment, Screen Australia, Screen Queensland, Wolfhound Pictures
Жанр: Фантастика, Триллер
Перевод: Любительский одноголосый, закадровый (Д.Есарев)
Субтитры: Вшитые отключаемые
Язык субтитров: Английский
Режиссер: Майкл Спириг, Питер Спириг
Продюсер: Пэдди МакДональд, Тим МакГахэн, Гари Хэмилтон
Актеры: Итэн Хоук, Сара Снук, Ноа Тейлор, Элиз Джэнсен, Фрея Стэффорд, Кристофер Кирби, Кейт Вульф, Алексис Фернандес, Люсинда Армстронг Холл, Алисия Павлис
Описание фильма:
Специальный агент постоянно находится между прошлым и будущим, чтобы обеспечить себе карьеру законника длиною в вечность. В своем последнем задании ему предстоит завербовать в прошлом самого себя и, наконец, задержать преступника, который вновь и вновь ускользает от него в другое время, находясь всегда на шаг впереди него.

Дата мировой премьеры: 13 января 2014
Дата российской премьеры: 4 декабря 2014, «Top Film Distribution»
Продолжительность: 01:37:49
Качество видео: BDRemux [1080p]
Видеокодек: MPEG-4 AVC/H.264
Битрейт видео: ~24891 kbps
Размер кадра: 1920x1080
Аудио #1: Русский: DTS, 48.0 KHz, 6 ch, 1510 Kbps, CBR - (Без цензуры)
Аудио #2: Русский: DTS, 48.0 KHz, 6 ch, 1510 Kbps, CBR - (Цензурный)
Аудио #3: Английский: DTS-HD MA, 48.0 KHz, 6 ch, 2112 Kbps, CBR - (Оригинал)
Сэмпл: Скачать

MediaInfo:

Общее
Уникальный идентификатор : 170443849287799073466071055019028108558 (0x803A4A93D101914080561F5AD755D50E)
Полное имя : D:\Фильмы\Patrul.vremeni.2014.BDRemux.1080p.mkv
Формат : Matroska
Версия формата : Version 4 / Version 2
Размер файла : 20,5 Гбайт
Продолжительность : 1 ч. 37 м.
Режим общего битрейта : Переменный
Общий поток : 30,0 Мбит/сек
Название фильма : Релиз Переулка Переводмана
Дата кодирования : UTC 2014-11-25 11:04:10
Программа кодирования : mkvmerge v7.2.0 ('On Every Street') 64bit built on Sep 13 2014 15:52:10
Библиотека кодирования : libebml v1.3.0 + libmatroska v1.4.1
DURATION : 01:30:41.602000000
NUMBER_OF_FRAMES : 1409
NUMBER_OF_BYTES : 44021
_STATISTICS_WRITING_APP : mkvmerge v7.2.0 ('On Every Street') 64bit built on Sep 13 2014 15:52:10
_STATISTICS_WRITING_DATE_UTC : 2014-11-25 11:04:10
_STATISTICS_TAGS : BPS DURATION NUMBER_OF_FRAMES NUMBER_OF_BYTES
Видео
Идентификатор : 1
Формат : AVC
Формат/Информация : Advanced Video Codec
Профиль формата : High@L4.1
Параметр CABAC формата : Да
Параметр ReFrames формата : 2 кадра
Параметр GOP формата : M=1, N=10
Идентификатор кодека : V_MPEG4/ISO/AVC
Продолжительность : 1 ч. 37 м.
Вид битрейта : Переменный
Ширина : 1920 пикселей
Высота : 1080 пикселей
Соотношение сторон : 16:9
Режим частоты кадров : Постоянный
Частота кадров : 23,976 кадра/сек
Цветовое пространство : YUV
Субдискретизация насыщенности : 4:2:0
Битовая глубина : 8 бит
Тип развёртки : Прогрессивная
Default : Да
Forced : Нет
Аудио #1
Идентификатор : 2
Формат : DTS
Формат/Информация : Digital Theater Systems
Режим : 16
Параметр Endianness формата : Big
Идентификатор кодека : A_DTS
Продолжительность : 1 ч. 37 м.
Вид битрейта : Постоянный
Битрейт : 1510 Кбит/сек
Каналы : 6 каналов
Расположение каналов : Front: L C R, Side: L R, LFE
Частота : 48,0 КГц
Битовая глубина : 24 бит
Метод сжатия : С потерями
Размер потока : 1,03 Гбайт (5%)
Заголовок : Есарев (без цензуры)
Язык : Russian
Default : Да
Forced : Нет
Аудио #2
Идентификатор : 3
Формат : DTS
Формат/Информация : Digital Theater Systems
Режим : 16
Параметр Endianness формата : Big
Идентификатор кодека : A_DTS
Продолжительность : 1 ч. 37 м.
Вид битрейта : Постоянный
Битрейт : 1510 Кбит/сек
Каналы : 6 каналов
Расположение каналов : Front: L C R, Side: L R, LFE
Частота : 48,0 КГц
Битовая глубина : 24 бит
Метод сжатия : С потерями
Размер потока : 1,03 Гбайт (5%)
Заголовок : Есарев (цензурный)
Язык : Russian
Default : Нет
Forced : Нет
Аудио #3
Идентификатор : 4
Формат : DTS
Формат/Информация : Digital Theater Systems
Профиль формата : MA / Core
Режим : 16
Параметр Endianness формата : Big
Идентификатор кодека : A_DTS
Продолжительность : 1 ч. 37 м.
Вид битрейта : Переменный
Битрейт : Неизвестно / 1509 Кбит/сек
Каналы : 6 каналов
Расположение каналов : Front: L C R, Side: L R, LFE
Частота : 48,0 КГц
Битовая глубина : 16 бит
Метод сжатия : Без потерь / Lossy
Язык : English
Default : Нет
Forced : Нет
Текст
Идентификатор : 5
Формат : UTF-8
Идентификатор кодека : S_TEXT/UTF8
Идентификатор кодека/Информация : UTF-8 Plain Text
Заголовок : English
Язык : English
Default : Нет
Forced : Нет
Меню
00:00:00.000 : en:00:00:00.000
00:06:04.656 : en:00:06:04.656
00:08:31.678 : en:00:08:31.678
00:15:55.538 : en:00:15:55.538
00:22:33.602 : en:00:22:33.602
00:28:53.273 : en:00:28:53.273
00:34:25.689 : en:00:34:25.689
00:41:07.632 : en:00:41:07.632
00:47:33.059 : en:00:47:33.059
00:52:05.372 : en:00:52:05.372
00:58:46.356 : en:00:58:46.356
01:05:18.832 : en:01:05:18.832
01:12:06.656 : en:01:12:06.656
01:17:43.117 : en:01:17:43.117
01:22:50.382 : en:01:22:50.382
01:29:37.956 : en:01:29:37.956

Avdump:

File: D:\Фильмы\Patrul.vremeni.2014.BDRemux.1080p.mkv
Duration: 01:37:49 (5868.86)
Track #1: video
lang: und (1)
codc: V_MPEG4/ISO/AVC -> H264/AVC (22)
reso: 1920x1080 -> 16:9
fram: 23.976 fps
rate: 24891 kbps (24891.4)
dura: 01:37:49 (5868.82)
size: 17.01 GB (18260429503)
Track #2: audio (???????????? (?????? ??????????????))
lang: rus -> Russian (15)
codc: A_DTS -> DTS (13)
chan: 6 -> 5.1 Surround
samp: 48000 Hz
rate: 1510 kbps (1509.87)
dura: 01:37:49 (5868.78)
size: 1.03 GB (1107634627)
Track #3: audio (???????????? (??????????????????))
lang: rus -> Russian (15)
codc: A_DTS -> DTS (13)
chan: 6 -> 5.1 Surround
samp: 48000 Hz
rate: 1510 kbps (1509.87)
dura: 01:37:49 (5868.78)
size: 1.03 GB (1107634654)
Track #4: audio
lang: Unknown (1)
codc: A_DTS -> DTS (13)
chan: 6 -> 5.1 Surround
samp: 48000 Hz
rate: 2113 kbps (2112.74)
dura: 01:37:49 (5868.84)
size: 1.44 GB (1549918343)
Track #5: subtitles (English)
lang: Unknown (1)
type: S_TEXT/UTF8 -> SRT (3)
size: 42.99 KB (44021)
Sizes: (check sanity)
disk: 20.52 GB (22028843701)
trac: 4.51 GB (4845791964) [based on track size]
bitr: 20.51 GB (22025627152) [based on bitrate]
tdif: 16.00 GB (17183051737) 78.00%
bdif: 3.07 MB (3216548) 0.01%
Скриншоты: Время раздачи: 24/7
(до 5 скачавших)

[Цитировать]



Показать сообщения:    

Текущее время: 10-Дек 08:07

Часовой пояс: UTC + 3


Вы не можете начинать темы
Вы не можете отвечать на сообщения
Вы не можете редактировать свои сообщения
Вы не можете удалять свои сообщения
Вы не можете голосовать в опросах
Вы не можете прикреплять файлы к сообщениям
Вы не можете скачивать файлы

!ВНИМАНИЕ!
Сайт не предоставляет электронные версии произведений, а занимается лишь коллекционированием и каталогизацией ссылок, присылаемых и публикуемых на форуме нашими читателями. Если вы являетесь правообладателем какого-либо представленного материала и не желаете, чтобы ссылка на него находилась в нашем каталоге, свяжитесь с нами, и мы незамедлительно удалим ее. Файлы для обмена на трекере предоставлены пользователями сайта, и администрация не несет ответственности за их содержание. Просьба не заливать файлы, защищенные авторскими правами, а также файлы нелегального содержания!