[ Сегодня идет свободное скачивание без начисления Download ]


Статистика раздачи
Нет
 
   
 
Top  
 
 
-Экстрасенс 2: Лабиринты разума / Mindscape (2013) BDRip
«Don't Let Her In»
- Производство: США, Испания, Франция
Год выпуска: 2013
Жанр: Триллер, Драма
Перевод: Дублированный [Чистый звук]
Язык субтитров: Английский
Субтитры: Вшитые (отключаемые)
Описание фильма:
Джон — человек, обладающий паранормальными способностями, расследует новое дело. В этот раз ему предстоит общение с 16 летней напуганной девушкой, и главному герою предстоит ответить на вопрос — кто такая Анна? Жертва обстоятельств или убийца-социопат?
Режиссер: Хорхе С. Дорадо
Актеры: Индира Варма, Таисса Фармига, Марк Стронг, Брайан Кокс, Ноа Тейлор, Род Халлетт, Саския Ривз, Джессика Барден, Клер Кэлбрайт, Альберто Амман

Дата мировой премьеры: 13 октября 2013
Дата российской премьеры: 6 ноября 2014
Продолжительность: 01:38:51
Качество видео: BDRip
Видеокодек: MPEG-4 AVC/H.264
Битрейт видео: ~6600 Кбит/с
Размер кадра: 1280x538
Аудио 1: Русский AC3, 384 kb/s (2 ch), 48 kHz
Аудио 2: Английский DTS, 1510 kb/s (6 ch), 48 kHz-

MediaInfo:

General
Complete name : O:\Экстрасенс 2_Лабиринты разума.720p.mkv
Format : Matroska
File size : 5.98 GiB
Duration : 1h 38mn
Overall bit rate : 8 666 Kbps
Movie name : Tonik
Encoded date : UTC 2014-11-24 15:01:22
Writing application : mkvmerge v7.1.0 ('Good Love') 64bit built on Jul 27 2014 13:06:55
Writing library : libebml v1.3.0 + libmatroska v1.4.1
Video
ID : 1
Format : AVC
Format/Info : Advanced Video Codec
Format profile : High@L4.1
Format settings, CABAC : Yes
Format settings, ReFrames : 11 frames
Muxing mode : Container profile=Unknown@4.1
Codec ID : V_MPEG4/ISO/AVC
Duration : 1h 38mn
Bit rate : 6 600 Kbps
Width : 1 280 pixels
Height : 538 pixels
Display aspect ratio : 2.35:1
Frame rate : 23.976 fps
Resolution : 8 bits
Colorimetry : 4:2:0
Scan type : Progressive
Bits/(Pixel*Frame) : 0.400
Stream size : 4.55 GiB (76%)
Writing library : x264 core 142 r2389+41 02cb608 tMod [8-bit@all X86_64]
Encoding settings : cabac=1 / ref=11 / deblock=1:-3:-3 / analyse=0x3:0x133 / me=umh / subme=11 / psy=1 / fade_compensate=0.00 / psy_rd=1.05:0.00 / mixed_ref=1 / me_range=48 / chroma_me=1 / trellis=2 / 8x8dct=1 / cqm=0 / deadzone=21,11 / fast_pskip=0 / chroma_qp_offset=-2 / threads=18 / lookahead_threads=4 / sliced_threads=0 / nr=0 / decimate=0 / interlaced=0 / bluray_compat=0 / constrained_intra=0 / fgo=0 / bframes=10 / b_pyramid=2 / b_adapt=2 / b_bias=0 / direct=3 / weightb=1 / open_gop=0 / weightp=2 / keyint=250 / keyint_min=23 / scenecut=40 / intra_refresh=0 / rc_lookahead=80 / rc=crf / mbtree=0 / crf=17.3000 / qcomp=0.70 / qpmin=0:0:0 / qpmax=69:69:69 / qpstep=4 / vbv_maxrate=50000 / vbv_bufsize=62500 / crf_max=0.0 / nal_hrd=none / filler=0 / ip_ratio=1.30 / pb_ratio=1.20 / aq=1:0.75 / aq-sensitivity=10.00 / aq-factor=1.00:1.00:1.00 / aq2=0 / aq3=0 / zones=136137,142199,crf=23.0
Audio #1
ID : 2
Format : AC-3
Format/Info : Audio Coding 3
Codec ID : A_AC3
Duration : 1h 38mn
Bit rate mode : Constant
Bit rate : 384 Kbps
Channel(s) : 2 channels
Channel positions : L R
Sampling rate : 48.0 KHz
Stream size : 271 MiB (4%)
Title : line
Language : Russian
Audio #2
ID : 3
Format : DTS
Format/Info : Digital Theater Systems
Codec ID : A_DTS
Duration : 1h 38mn
Bit rate mode : Constant
Bit rate : 1 510 Kbps
Channel(s) : 6 channels
Channel positions : Front: L C R, Surround: L R, LFE
Sampling rate : 48.0 KHz
Resolution : 24 bits
Stream size : 1.04 GiB (17%)
Text
ID : 4
Format : UTF-8
Codec ID : S_TEXT/UTF8
Codec ID/Info : UTF-8 Plain Text
Menu
00:00:00.000 : en:Chapter 01
00:10:35.593 : en:Chapter 02
00:20:33.190 : en:Chapter 03
00:32:07.634 : en:Chapter 04
00:40:50.406 : en:Chapter 05
00:50:19.224 : en:Chapter 06
01:01:31.854 : en:Chapter 07
01:13:16.975 : en:Chapter 08
01:24:40.950 : en:Chapter 09
-Скриншоты:
Время раздачи: 24/7 - круглосуточно

[Цитировать]



Показать сообщения:    

Текущее время: 11-Дек 12:58

Часовой пояс: UTC + 3


Вы не можете начинать темы
Вы не можете отвечать на сообщения
Вы не можете редактировать свои сообщения
Вы не можете удалять свои сообщения
Вы не можете голосовать в опросах
Вы не можете прикреплять файлы к сообщениям
Вы не можете скачивать файлы

!ВНИМАНИЕ!
Сайт не предоставляет электронные версии произведений, а занимается лишь коллекционированием и каталогизацией ссылок, присылаемых и публикуемых на форуме нашими читателями. Если вы являетесь правообладателем какого-либо представленного материала и не желаете, чтобы ссылка на него находилась в нашем каталоге, свяжитесь с нами, и мы незамедлительно удалим ее. Файлы для обмена на трекере предоставлены пользователями сайта, и администрация не несет ответственности за их содержание. Просьба не заливать файлы, защищенные авторскими правами, а также файлы нелегального содержания!