[ Сегодня идет свободное скачивание без начисления Download ]


Статистика раздачи
Нет
 
   
 
Top  
 
 
-След Пираньи (2014) SATRip [Серия 1-4 из 4]- Год выпуска: 2014
Жанр: Боевик, Приключения
Релиз группа: RiperAM

Дата российской премьеры: 30.11.2014
Режиссер: Пётр Олевский
Актеры:Артём Карасёв, Наталья Дворецкая, Борис Драгелев, Михаил Сафронов, Андрей Вергелис, Валерия Шкирандо, Валерий Гришко, Виктор Чупров, Елизавета Кафиева, Анатолий РудаковОписание фильма:По мотивам одноименного романа Александра Бушкова. История начинается с личной трагедии майора Кирилла Мазура - его жену Ольгу убивают. Он выясняет, что убийца жены - хозяин охотничьей заимки, где устраивают охоту на людей. Мазур намерен отомстить, но до убийцы добраться практически невозможно. Майор обращается за помощью к давнему другу генералу Глаголеву. Тот готов помочь, если капитан выполнит его задание. На охотничьей заимке находятся видеоматериалы, которые компрометируют сенатора США, баллотирующегося в президенты. Мазур должен достать эти материалы для американского прокурора, который намерен разоблачить сенатора...Продолжительность: 4 х ~ 00:42:30
Субтитры:нет
Качество видео: SATRip
Формат: avi
Видеокодек: Xvid
Битрейт видео: ~1800 kbps
Размер кадра: 720x400
Аудиокодек: MP3, 2ch
Битрейт аудио: 128.00 kbps

Mediainfo

Общее
Полное имя : F:\видео\сериалы\Sled.piranji.SATRip.\Sled.piranji.01.SATRip.avi
Формат : AVI
Формат/Информация : Audio Video Interleave
Размер файла : 589 Мбайт
Продолжительность : 42 м.
Общий поток : 1938 Кбит/сек
Программа кодирования : VirtualDubMod 1.5.10.3 | [url=http://www.virtualdub-fr.org]www.virtualdub-fr.org[/url] || (build 2550/release)
Библиотека кодирования : VirtualDubMod build 2550/release
Видео
Идентификатор : 0
Формат : MPEG-4 Visual
Профиль формата : Advanced Simple@L5
Параметр BVOP формата : 2
Параметр QPel формата : Нет
Параметр GMC формата : Без точки перехода
Параметр матрицы формата : Default (H.263)
Идентификатор кодека : XVID
Идентификатор кодека/Подсказка : XviD
Продолжительность : 42 м.
Битрейт : 1800 Кбит/сек
Ширина : 720 пикселей
Высота : 400 пикселей
Соотношение сторон : 16:9
Частота кадров : 25,000 кадров/сек
Цветовое пространство : YUV
Субдискретизация насыщенности : 4:2:0
Битовая глубина : 8 бит
Тип развёртки : Прогрессивная
Метод сжатия : С потерями
Бит/(Пиксели*Кадры) : 0.250
Размер потока : 547 Мбайт (93%)
Библиотека кодирования : XviD 1.2.1 (UTC 2008-12-04)
Аудио
Идентификатор : 1
Формат : MPEG Audio
Версия формата : Version 1
Профиль формата : Layer 3
Режим : Joint stereo
Расширение режима : MS Stereo
Идентификатор кодека : 55
Идентификатор кодека/Подсказка : MP3
Продолжительность : 42 м.
Вид битрейта : Постоянный
Битрейт : 128 Кбит/сек
Каналы : 2 канала
Частота : 48,0 КГц
Метод сжатия : С потерями
Размер потока : 38,9 Мбайт (7%)
Выравнивание : Соединение по промежуткам
Продолжительность промежутка : 40 мс. (1,00 видеокадр)
Время предзагрузки промежутка : 504 мс.
Библиотека кодирования : LAME3.99r
Настройки программы : -m j -V 4 -q 9 -lowpass 17 -b 128
Скриншоты:
Время раздачи: 24/7. До первых 5 скачавших

[Цитировать]

Топик был перенесен из форума Отечественные сериалы в форум Архив
cyrmos



Показать сообщения:    

Текущее время: 24-Май 15:54

Часовой пояс: UTC + 6


Вы не можете начинать темы
Вы не можете отвечать на сообщения
Вы не можете редактировать свои сообщения
Вы не можете удалять свои сообщения
Вы не можете голосовать в опросах
Вы не можете прикреплять файлы к сообщениям
Вы не можете скачивать файлы

!ВНИМАНИЕ!
Сайт не предоставляет электронные версии произведений, а занимается лишь коллекционированием и каталогизацией ссылок, присылаемых и публикуемых на форуме нашими читателями. Если вы являетесь правообладателем какого-либо представленного материала и не желаете, чтобы ссылка на него находилась в нашем каталоге, свяжитесь с нами, и мы незамедлительно удалим ее. Файлы для обмена на трекере предоставлены пользователями сайта, и администрация не несет ответственности за их содержание. Просьба не заливать файлы, защищенные авторскими правами, а также файлы нелегального содержания!