[ Сегодня идет свободное скачивание без начисления Download ]


Статистика раздачи
Нет
 
   
 
Top  
 
 
-Патруль времени / Предопределение / Predestination (2014) BDRip-«Чтобы сохранить будущее, он должен изменить прошлое»- Год выпуска: 2014
Производство: Австралия / Blacklab Entertainment, Screen Australia, Screen Queensland, Wolfhound Pictures
Жанр: Фантастика, Триллер
Перевод: Многоголосый закадровый, профессиональный (Baibako), Любительский одноголосый закадровый (Д.Есарев)
Субтитры: Вшитые отключаемые
Язык субтитров: Английский
Дата мировой премьеры: 13 января 2014
Дата российской премьеры: 4 декабря 2014, «Top Film Distribution»
Режиссер: Майкл Спириг, Питер Спириг
Продюсер: Пэдди МакДональд, Тим МакГахэн, Гари Хэмилтон
Актеры: Итэн Хоук, Сара Снук, Ноа Тейлор, Элиз Джэнсен, Фрея Стэффорд, Кристофер Кирби, Кейт Вульф, Алексис Фернандес, Люсинда Армстронг Холл, Алисия Павлис
Описание фильма:
Будущее. Ученые создали машину времени, и с этим изобретением мир вошел в новый виток цивилизации. Благодаря изобретению появилась возможность исправлять ошибки прошлого, чтобы сделать настоящее лучше. Так же машина дала возможность предотвращать преступления до их реализации. Для этой цели были отобраны лучшие полицейские.
Главный герой — полицейский времени, который уже успел предотвратить огромное количество преступлений благодаря путешествиям сквозь время. Однако все его заслуги меркнут, потому что он неспособен остановить угрозу, намеревающуюся уничтожить Нью-Йорк.

Продолжительность: 01:37:49
Качество видео: BDRip (CHD)
Видеокодек: MPEG-4 AVC/H.264
Битрейт видео: ~4860 kbps
Размер кадра: 1280 X 534
Аудиокодек: AC3 5.1
Аудио 1: Русский, AC3 5.1, 384 kbps, 48 kHz (MVO, Baibako)
Аудио 2: Русский, AC3 5.1, 640 kbps, 48 kHz (VO, Есарев (без цензуры)
Аудио 3: Русский, AC3 5.1, 640 kbps, 48 kHz (VO, Есарев (цензурный)
Аудио 4: Английский, AC3 5.1, 640 kbps, 48 kHz (Original)
Сэмпл: Скачать

MediaInfo:

Общее
Уникальный идентификатор : 236191892697506641804682041057109867810 (0xB1B0E76477AE87308405C05759F3FD22)
Полное имя : D:\Films\Predestination.2014.BDRip.720p.mkv
Формат : Matroska
Версия формата : Version 2
Размер файла : 4,90 Гбайт
Продолжительность : 1 ч. 37 м.
Общий поток : 7166 Кбит/сек
Дата кодирования : UTC 2014-12-03 06:07:06
Программа кодирования : mkvmerge v5.2.0 ('I can't explain') built on Dec 18 2011 18:12:03
Библиотека кодирования : libebml v1.2.3 + libmatroska v1.3.0
Видео
Идентификатор : 1
Формат : AVC
Формат/Информация : Advanced Video Codec
Профиль формата : High@L4.1
Параметр CABAC формата : Да
Параметр ReFrames формата : 10 кадров
Идентификатор кодека : V_MPEG4/ISO/AVC
Продолжительность : 1 ч. 37 м.
Битрейт : 4863 Кбит/сек
Ширина : 1280 пикселей
Высота : 534 пикселя
Соотношение сторон : 2,40:1
Режим частоты кадров : Постоянный
Частота кадров : 23,976 кадра/сек
Цветовое пространство : YUV
Субдискретизация насыщенности : 4:2:0
Битовая глубина : 8 бит
Тип развёртки : Прогрессивная
Бит/(Пиксели*Кадры) : 0.297
Размер потока : 3,22 Гбайт (66%)
Библиотека кодирования : x264 core 142 r2431 ac76440
Настройки программы : cabac=1 / ref=10 / deblock=1:-3:-3 / analyse=0x3:0x113 / me=umh / subme=10 / psy=1 / psy_rd=1.00:0.05 / mixed_ref=1 / me_range=32 / chroma_me=1 / trellis=2 / 8x8dct=1 / cqm=0 / deadzone=21,11 / fast_pskip=0 / chroma_qp_offset=-2 / threads=18 / lookahead_threads=1 / sliced_threads=0 / nr=0 / decimate=1 / interlaced=0 / bluray_compat=0 / constrained_intra=0 / bframes=4 / b_pyramid=2 / b_adapt=2 / b_bias=0 / direct=3 / weightb=1 / open_gop=0 / weightp=2 / keyint=250 / keyint_min=23 / scenecut=40 / intra_refresh=0 / rc=2pass / mbtree=0 / bitrate=4863 / ratetol=1.0 / qcomp=0.70 / qpmin=0 / qpmax=69 / qpstep=4 / cplxblur=20.0 / qblur=0.5 / ip_ratio=1.40 / pb_ratio=1.30 / aq=2:1.00
Язык : English
Default : Да
Forced : Нет
Аудио #1
Идентификатор : 2
Формат : AC-3
Формат/Информация : Audio Coding 3
Расширение режима : CM (complete main)
Параметр Endianness формата : Big
Идентификатор кодека : A_AC3
Продолжительность : 1 ч. 37 м.
Вид битрейта : Постоянный
Битрейт : 384 Кбит/сек
Каналы : 6 каналов
Расположение каналов : Front: L C R, Side: L R, LFE
Частота : 48,0 КГц
Битовая глубина : 16 бит
Метод сжатия : С потерями
Размер потока : 269 Мбайт (5%)
Заголовок : MVO, Baibako
Язык : Russian
Default : Да
Forced : Нет
Аудио #2
Идентификатор : 3
Формат : AC-3
Формат/Информация : Audio Coding 3
Расширение режима : CM (complete main)
Параметр Endianness формата : Big
Идентификатор кодека : A_AC3
Продолжительность : 1 ч. 37 м.
Вид битрейта : Постоянный
Битрейт : 640 Кбит/сек
Каналы : 6 каналов
Расположение каналов : Front: L C R, Side: L R, LFE
Частота : 48,0 КГц
Битовая глубина : 16 бит
Метод сжатия : С потерями
Размер потока : 448 Мбайт (9%)
Заголовок : VO, Есарев (без цензуры)
Язык : Russian
Default : Нет
Forced : Нет
Аудио #3
Идентификатор : 4
Формат : AC-3
Формат/Информация : Audio Coding 3
Расширение режима : CM (complete main)
Параметр Endianness формата : Big
Идентификатор кодека : A_AC3
Продолжительность : 1 ч. 37 м.
Вид битрейта : Постоянный
Битрейт : 640 Кбит/сек
Каналы : 6 каналов
Расположение каналов : Front: L C R, Side: L R, LFE
Частота : 48,0 КГц
Битовая глубина : 16 бит
Метод сжатия : С потерями
Размер потока : 448 Мбайт (9%)
Заголовок : VO, Есарев (цензурный)
Язык : Russian
Default : Нет
Forced : Нет
Аудио #4
Идентификатор : 5
Формат : AC-3
Формат/Информация : Audio Coding 3
Расширение режима : CM (complete main)
Параметр Endianness формата : Big
Идентификатор кодека : A_AC3
Продолжительность : 1 ч. 37 м.
Вид битрейта : Постоянный
Битрейт : 640 Кбит/сек
Каналы : 6 каналов
Расположение каналов : Front: L C R, Side: L R, LFE
Частота : 48,0 КГц
Битовая глубина : 16 бит
Метод сжатия : С потерями
Размер потока : 448 Мбайт (9%)
Заголовок : Original
Язык : English
Default : Нет
Forced : Нет
Текст
Идентификатор : 6
Формат : UTF-8
Идентификатор кодека : S_TEXT/UTF8
Идентификатор кодека/Информация : UTF-8 Plain Text
Язык : English
Default : Нет
Forced : Нет
---------------x264iNFO---------------
x264 [info]: frame I:1687 Avg QP:12.80 size:132844
x264 [info]: frame P:37237 Avg QP:14.65 size: 47207
x264 [info]: frame B:101789 Avg QP:16.73 size: 15553

Avdump:

File: D:\Films\Predestination.2014.BDRip.720p.mkv
Duration: 01:37:49 (5868.9)
Track #1: video
lang: Unknown (1)
codc: V_MPEG4/ISO/AVC -> H264/AVC (22)
reso: 1280x534 -> Unknown (aka not common)
fram: 23.976 fps
rate: 4860 kbps (4859.7)
dura: 01:37:49 (5868.86)
size: 3.32 GB (3565111844)
Track #2: audio (MVO, Baibako)
lang: rus -> Russian (15)
codc: A_AC3 -> AC3 (2)
chan: 6 -> 5.1 Surround
samp: 48000 Hz
rate: 384 kbps (384.04)
dura: 01:37:49 (5868.74)
size: 268.68 MB (281729711)
Track #3: audio (VO, ???????????? (?????? ??????????????))
lang: rus -> Russian (15)
codc: A_AC3 -> AC3 (2)
chan: 6 -> 5.1 Surround
samp: 48000 Hz
rate: 640 kbps (640.04)
dura: 01:37:49 (5868.77)
size: 447.78 MB (469533362)
Track #4: audio (VO, ???????????? (??????????????????))
lang: rus -> Russian (15)
codc: A_AC3 -> AC3 (2)
chan: 6 -> 5.1 Surround
samp: 48000 Hz
rate: 640 kbps (640.05)
dura: 01:37:49 (5868.74)
size: 447.78 MB (469533368)
Track #5: audio (Original)
lang: Unknown (1)
codc: A_AC3 -> AC3 (2)
chan: 6 -> 5.1 Surround
samp: 48000 Hz
rate: 640 kbps (640.05)
dura: 01:37:49 (5868.74)
size: 447.78 MB (469535923)
Track #6: subtitles
lang: Unknown (1)
type: S_TEXT/UTF8 -> SRT (3)
size: 42.99 KB (44021)
Sizes: (check sanity)
disk: 4.90 GB (5257414943)
trac: 4.89 GB (5255488229) [based on track size]
bitr: 4.89 GB (5255476288) [based on bitrate]
tdif: 1.84 MB (1926714) 0.03%
bdif: 1.85 MB (1938654) 0.03%
-Скриншоты: -Время раздачи: С 8:00 до 22:00 до 5 скачавших

[Цитировать]



Показать сообщения:    

Текущее время: 11-Дек 16:47

Часовой пояс: UTC + 3


Вы не можете начинать темы
Вы не можете отвечать на сообщения
Вы не можете редактировать свои сообщения
Вы не можете удалять свои сообщения
Вы не можете голосовать в опросах
Вы не можете прикреплять файлы к сообщениям
Вы не можете скачивать файлы

!ВНИМАНИЕ!
Сайт не предоставляет электронные версии произведений, а занимается лишь коллекционированием и каталогизацией ссылок, присылаемых и публикуемых на форуме нашими читателями. Если вы являетесь правообладателем какого-либо представленного материала и не желаете, чтобы ссылка на него находилась в нашем каталоге, свяжитесь с нами, и мы незамедлительно удалим ее. Файлы для обмена на трекере предоставлены пользователями сайта, и администрация не несет ответственности за их содержание. Просьба не заливать файлы, защищенные авторскими правами, а также файлы нелегального содержания!