[ Сегодня идет свободное скачивание без начисления Download ]


Статистика раздачи
Нет
 
   
 
Top  
 
 
Тетрадь смерти. Трилогия / Death Note. TrilogyТетрадь Смерти / Death Note
Год выпуска: 2006
Страна: Япония (Death Note Film Partners)
Жанр: драма, приключения, криминал, детектив
Продолжительность: 02:06:37
Перевод: Любительский (одноголосый) - AnimeGroup
Русские субтитры: нет
Режиссер: Шусуке Канеко / Kaneko Shusuke
В ролях: Татсуя Фудживара, Кеничи Матсуяма, Асака Сето, Шигеки Хосокава, Эрика Тода, Сюндзи Фуджимура, Такеши Кага, Ю Кашии, Шидо Накамура, Sota Aoyama
Описание: В основном сюжет вертится вокруг студента старшей школы Ягами Лайта, который решил освободить мир от зла с помощью сверхъестественной «Тетради Смерти». Если написать настоящее имя человека в эту тетрадь, то он умрёт. Однако одного имени недостаточно: необходимо знать также и внешность жертвы. Ягами Лайт начинает массовые убийства преступников по всему миру с помощью этой тетради, но его берётся остановить таинственный детектив «L».
Доп. информация:
Бюджет $20 000 000.
Знаете ли вы, что ...
- События аниме происходят «со сдвигом» на 3 года относительно событий манги. В частности, в манге действие начинается в 2004 году, а в аниме — в 2007. По манге, День рождения Лайта — 28 февраля 1986 года, а по аниме — 28 февраля 1989 года.
- В аниме и манге Лайт играл в теннис, в фильмах — в баскетбол.
- Рея Пенбера в фильмах зовут Рей Ивамацу.
7.7/10 (7861 votes )
Качество: BD-Remux
Формат: M2TS
Видео кодек: AVC
Аудио кодек: AC3
Видео: 1920x1080p (1.78:1), 23.976 fps, MPEG-4 AVC ~ 18790 Kbps
Аудио: Японский TrueHD 5.1 48 kHz 16-bit ~ 1304 kbps (core: 640 kbps), Русский AC3 5.1 48 kHz 384 kbps
Субтитры: Японский, Английский, Русские - http://www.fansubs.ru/base.php?id=1328
Релиз группы

MediaInfo

General
ID : 1
Complete name : X:\death_note_trilogiga\Death Note I\BDMV\STREAM\00000.m2ts
Format : BDAV
Format/Info : Blu-ray Video
File size : 20.4 GiB
Duration : 2h 6mn
Overall bit rate : 23.1 Mbps
Maximum Overall bit rate : 35.5 Mbps
Video
ID : 4113 (0x1011)
Menu ID : 1 (0x1)
Format : AVC
Format/Info : Advanced Video Codec
Format profile : High@L4.1
Format settings, CABAC : Yes
Format settings, ReFrames : 2 frames
Duration : 2h 6mn
Width : 1 920 pixels
Height : 1 080 pixels
Display aspect ratio : 16:9
Frame rate : 23.976 fps
Resolution : 8 bits
Colorimetry : 4:2:0
Scan type : Progressive
Audio #1
ID : 4352 (0x1100)
Menu ID : 1 (0x1)
Format : AC-3
Format/Info : Audio Coding 3
Format profile : TrueHD / Core
Muxing mode : Stream extension
Duration : 2h 6mn
Bit rate mode : Variable / Constant
Bit rate : Variable / 640 Kbps
Maximum bit rate : 3 069 Kbps / 640 Kbps
Channel(s) : 6 channels
Channel positions : Front: L C R, Surround: L R, LFE
Sampling rate : 48.0 KHz
Language : Japanese / /
Audio #2
ID : 4353 (0x1101)
Menu ID : 1 (0x1)
Format : AC-3
Format/Info : Audio Coding 3
Duration : 2h 6mn
Bit rate mode : Constant
Bit rate : 384 Kbps
Channel(s) : 6 channels
Channel positions : Front: L C R, Surround: L R, LFE
Sampling rate : 48.0 KHz
Stream size : 348 MiB (2%)
Language : Russian / /
Text #1
ID : 4608 (0x1200)
Menu ID : 1 (0x1)
Format : PGS
Language : Japanese / /
Text #2
ID : 4609 (0x1201)
Menu ID : 1 (0x1)
Format : PGS
Language : English / /

Скриншоты


Тетрадь Смерти 2 / Death Note: The Last Name
Год выпуска: 2006
Страна: Япония (Death Note Film Partners)
Жанр: драма, приключения, криминал, детектив
Продолжительность: 02:20:40
Перевод: Любительский (одноголосый) - AnimeGroup
Русские субтитры: есть
Режиссер: Шусуке Канеко / Kaneko Shusuke
В ролях: Татсуя Фудживара, Такеши Кага, Шидо Накамура, Эрика Тода, Шигеки Хосокава, Сюндзи Фуджимура, Кеничи Матсуяма, Шин Шимицу, Sota Aoyama, Magy
Описание: Вы когда-нибудь хотели изменить мир к лучшему? Сделать его чище, правильнее… Хотели? Ягами Лайт, юный гений, послушный сын, красавец и просто идеальный студент тоже этого хотел. Теперь у вас есть шанс увидеть, что получилось у него. Ибо случайная находка — тетрадь Бога Смерти — подарила юноше возможность легко убить практически любого человека в любой точке земного шара.
И Лайт начинает свой крестовый поход против зла на Земле, начав с тотального истребления преступников. Как класса. Массовая гибель подозреваемых, а то и заключенных, не могла не привлечь внимание Интерпола, и она его привлекла. Однако загадочность всех этих смертей не давала полицейским никакой зацепки, ни одной ниточки, по которой можно было бы узнать, кто такое творит…
И тогда на след загадочного Киры (так начали называть таинственного борца за справедливость в Интернете) вышел L — один из лучших детективов в мире. Кто же победит в этом противостоянии — всемогущий Кира или гениальный L?
Доп. информация:
Бюджет $20 000 000.
7.4/10 (3696 votes )
Качество: BD-Remux
Формат: M2TS
Видео кодек: AVC
Аудио кодек: AC3
Видео: 1920x1080p (1.78:1), 23.976 fps, MPEG-4 AVC ~ 16084 Kbps
Аудио: Японский TrueHD 5.1 48 kHz 16-bit ~ 1365 kbps (core: 640 kbps), Русский AC3 5.1 48 kHz 448 kbps
Субтитры: Японский, Английский, Русские
Релиз группы

MediaInfo

General
ID : 1
Complete name : X:\death_note_trilogiga\Death Note II\BDMV\STREAM\00000.m2ts
Format : BDAV
Format/Info : Blu-ray Video
File size : 20.0 GiB
Duration : 2h 20mn
Overall bit rate : 20.4 Mbps
Maximum Overall bit rate : 35.5 Mbps
Video
ID : 4113 (0x1011)
Menu ID : 1 (0x1)
Format : AVC
Format/Info : Advanced Video Codec
Format profile : High@L4.1
Format settings, CABAC : Yes
Format settings, ReFrames : 4 frames
Duration : 2h 20mn
Width : 1 920 pixels
Height : 1 080 pixels
Display aspect ratio : 16:9
Frame rate : 23.976 fps
Standard : NTSC
Resolution : 8 bits
Colorimetry : 4:2:0
Scan type : Progressive
Color primaries : BT.709-5, BT.1361, IEC 61966-2-4, SMPTE RP177
Transfer characteristics : BT.709-5, BT.1361
Matrix coefficients : BT.709-5, BT.1361, IEC 61966-2-4 709, SMPTE RP177
Audio #1
ID : 4352 (0x1100)
Menu ID : 1 (0x1)
Format : AC-3
Format/Info : Audio Coding 3
Format profile : TrueHD / Core
Muxing mode : Stream extension
Duration : 2h 20mn
Bit rate mode : Variable / Constant
Bit rate : Variable / 640 Kbps
Maximum bit rate : 2 970 Kbps / 640 Kbps
Channel(s) : 6 channels
Channel positions : Front: L C R, Surround: L R, LFE
Sampling rate : 48.0 KHz
Language : Japanese / /
Audio #2
ID : 4353 (0x1101)
Menu ID : 1 (0x1)
Format : AC-3
Format/Info : Audio Coding 3
Duration : 2h 20mn
Bit rate mode : Constant
Bit rate : 384 Kbps
Channel(s) : 6 channels
Channel positions : Front: L C R, Surround: L R, LFE
Sampling rate : 48.0 KHz
Stream size : 386 MiB (2%)
Language : Russian / /
Text #1
ID : 4608 (0x1200)
Menu ID : 1 (0x1)
Format : PGS
Language : Japanese / /
Text #2
ID : 4609 (0x1201)
Menu ID : 1 (0x1)
Format : PGS
Language : Russian / /
Text #3
ID : 4610 (0x1202)
Menu ID : 1 (0x1)
Format : PGS
Language : English / /

Скриншоты


Тетрадь Смерти 3 / L: Change The World
Год выпуска: 2008
Страна: Япония (Horipro)
Жанр: драма, приключения, криминал, детектив
Продолжительность: 02:08:56
Перевод: профессиональный (многоголосый закадровый)
Русские субтитры: есть
Режиссер: Наката Хидэо / Nakata Hideo
В ролях: Кеничи Матсуяма, Сота Аояма, Сюндзи Фуджимура, Татсуя Фудживара, Маюко Фукуда, Narushi Fukuda, Сей Хирайзуми, Шигеки Хосокава, Рэндзи Исибаси, Юта Канаи
Описание: После окончания расследования по делу Киры L сталкивается с еще одним серьезным случаем. В мире снова появляется человек, который обладает страшным оружием. На этот раз L должен обходиться без своего верного помощника Ватари и у него остается всего 23 дня, чтобы раскрыть это дело.
Доп. информация:
Бюджет $10 000 000.
6/10 (1512 votes )
Качество: BD-Remux
Формат: M2TS
Видео кодек: AVC
Аудио кодек: AC3
Видео: 1920x1080p (1.85:1), 23.976 fps, MPEG-4 AVC ~ 18814 Kbps
Аудио: Японский DTS-HD MA 5,1 48 kHz 16-bit ~ 2041 kbps (core: 1509 kbps 16-bit), Русский AC3 5.1 48 kHz 448 kbps
Субтитры: Японский
Релиз группы

MediaInfo

General
ID : 1
Complete name : X:\death_note_trilogiga\Death Note III\BDMV\STREAM\00000.m2ts
Format : BDAV
Format/Info : Blu-ray Video
File size : 19.9 GiB
Duration : 2h 8mn
Overall bit rate : 22.1 Mbps
Maximum Overall bit rate : 35.5 Mbps
Video
ID : 4113 (0x1011)
Menu ID : 1 (0x1)
Format : AVC
Format/Info : Advanced Video Codec
Format profile : High@L4.1
Format settings, CABAC : No
Format settings, ReFrames : 2 frames
Duration : 2h 8mn
Width : 1 920 pixels
Height : 1 080 pixels
Display aspect ratio : 16:9
Frame rate : 23.976 fps
Standard : NTSC
Resolution : 8 bits
Colorimetry : 4:2:0
Scan type : Progressive
Color primaries : BT.709-5, BT.1361, IEC 61966-2-4, SMPTE RP177
Transfer characteristics : BT.709-5, BT.1361
Matrix coefficients : BT.709-5, BT.1361, IEC 61966-2-4 709, SMPTE RP177
Audio #1
ID : 4352 (0x1100)
Menu ID : 1 (0x1)
Format : DTS
Format/Info : Digital Theater Systems
Format profile : MA
Muxing mode : Stream extension
Duration : 2h 8mn
Bit rate mode : Variable
Channel(s) : 6 channels
Channel positions : Front: L C R, Surround: L R, LFE
Sampling rate : 48.0 KHz
Resolution : 16 bits
Language : Japanese / /
Audio #2
ID : 4353 (0x1101)
Menu ID : 1 (0x1)
Format : AC-3
Format/Info : Audio Coding 3
Duration : 2h 8mn
Bit rate mode : Constant
Bit rate : 448 Kbps
Channel(s) : 6 channels
Channel positions : Front: L C R, Surround: L R, LFE
Sampling rate : 48.0 KHz
Stream size : 413 MiB (2%)
Language : Russian / /
Text
ID : 4608 (0x1200)
Menu ID : 1 (0x1)
Format : PGS
Language : Russian / /

Скриншоты


[Цитировать]



Показать сообщения:    

Текущее время: 10-Дек 23:33

Часовой пояс: UTC + 3


Вы не можете начинать темы
Вы не можете отвечать на сообщения
Вы не можете редактировать свои сообщения
Вы не можете удалять свои сообщения
Вы не можете голосовать в опросах
Вы не можете прикреплять файлы к сообщениям
Вы не можете скачивать файлы

!ВНИМАНИЕ!
Сайт не предоставляет электронные версии произведений, а занимается лишь коллекционированием и каталогизацией ссылок, присылаемых и публикуемых на форуме нашими читателями. Если вы являетесь правообладателем какого-либо представленного материала и не желаете, чтобы ссылка на него находилась в нашем каталоге, свяжитесь с нами, и мы незамедлительно удалим ее. Файлы для обмена на трекере предоставлены пользователями сайта, и администрация не несет ответственности за их содержание. Просьба не заливать файлы, защищенные авторскими правами, а также файлы нелегального содержания!