[ Сегодня идет свободное скачивание без начисления Download ]


Статистика раздачи
Нет
 
   
 
Top  
 
 
-Черепашки-ниндзя / Teenage Mutant Ninja Turtles (2014) BDRip«The leader. The brains. The attitude. And Mikey»- Год выпуска: 2014
Производство: США / Paramount Pictures
Жанр: Фантастика, Фэнтези, Боевик, Комедия, Приключения
Описание фильма:
Город нуждается в героях. Тьма окутала Нью-Йорк в виде Шреддера и его зловещего Клана Футов, у которого имеется железный контроль над всеми, от полицейских до политиков. Будущее выглядит мрачным, пока из канализации не поднимается и не раскрывает своё предназначение четвёрка отверженных братьев — Черепашки-ниндзя. Черепашки должны работать вместе с бесстрашным репортёром Эйприл и её саркастическим оператором Верном Фенвиком, чтобы спасти город и разгадать дьявольский план Шреддера
Режиссер: Джонатан Либесман
Продюсер: Майкл Бэй, Йен Брайс, Эндрю Форм
Актеры: Меган Фокс, Уилл Арнетт, Уильям Фихтнер, Алан Ричсон, Ноэль Фишер, Пит Пложек, Джонни Ноксвил, Джереми Ховард, Дэнни Вудберн, Тони Шэлуб
Перевод: Дублированный (Лицензия)
Субтитры: Вшитые отключаемые / Отдельным файлом
Язык субтитров: Русский (forced)

Рейтинг MPAA: PG-13
Возраст: 6+
Дата мировой премьеры: 3 августа 2014
Дата российской премьеры: 7 августа 2014, «Централ Партнершип»
Дата выхода DVD релиза: 15 декабря 2014, «Новый Диск»
Дата выхода BLU-RAY релиза: 15 декабря 2014, «Новый Диск»
Продолжительность: 01:41:18
Качество видео: BDRip
Видеокодек: MPEG-4 AVC/H.264
Битрейт видео: ~14,9 Мбит/сек
Размер кадра: 1920x1080
Аудио 1: AC3 5.1, 640 kbps [Русский]
Аудио 2: AC3 5.1, 640 kbps [Английский]

Media info:

Общее
Уникальный идентификатор : 170825341921256853515472485784090167827 (0x8083C39DCD95A43CBF9F60AAAB69CA13)
Полное имя : F:\my films\Teenage_Mutant_Ninja_Turtles_3D\Teenage_Mutant_Ninja_Turtles_3D.mkv
Формат : Matroska
Версия формата : Version 2
Размер файла : 11,7 Гбайт
Продолжительность : 1 ч. 41 м.
Общий поток : 16,5 Мбит/сек
Название фильма : Teenage_Mutant_Ninja_Turtles_3D_Crop_O/U
Дата кодирования : UTC 2014-12-01 14:38:51
Программа кодирования : mkvmerge v5.7.0 ('The Whirlwind') built on Aug 7 2012 14:11:40
Библиотека кодирования : libebml v1.2.3 + libmatroska v1.3.0
Видео
Идентификатор : 1
Формат : AVC
Формат/Информация : Advanced Video Codec
Профиль формата : High@L4.1
Параметр CABAC формата : Да
Параметр ReFrames формата : 4 кадра
Режим смешивания : Header stripping
Идентификатор кодека : V_MPEG4/ISO/AVC
Продолжительность : 1 ч. 41 м.
Битрейт : 14,9 Мбит/сек
Ширина : 1920 пикселей
Высота : 1080 пикселей
Соотношение сторон : 16:9
Режим частоты кадров : Постоянный
Частота кадров : 23,976 кадра/сек
Цветовое пространство : YUV
Субдискретизация насыщенности : 4:2:0
Битовая глубина : 8 бит
Тип развёртки : Прогрессивная
Бит/(Пиксели*Кадры) : 0.299
Размер потока : 10,5 Гбайт (90%)
Заголовок : rip by I/N
Библиотека кодирования : x264 core 128 r2216M 198a7ea
Настройки программы : cabac=1 / ref=4 / deblock=1:-3:-3 / analyse=0x3:0x133 / me=umh / subme=10 / psy=1 / psy_rd=1.00:0.15 / mixed_ref=1 / me_range=32 / chroma_me=1 / trellis=2 / 8x8dct=1 / cqm=0 / deadzone=0,0 / fast_pskip=0 / chroma_qp_offset=-3 / threads=8 / lookahead_threads=1 / sliced_threads=0 / nr=0 / decimate=1 / interlaced=0 / bluray_compat=0 / constrained_intra=0 / bframes=8 / b_pyramid=2 / b_adapt=2 / b_bias=0 / direct=3 / weightb=1 / open_gop=0 / weightp=2 / keyint=230 / keyint_min=23 / scenecut=40 / intra_refresh=0 / rc_lookahead=60 / rc=crf / mbtree=1 / crf=17.0 / qcomp=0.60 / qpmin=0 / qpmax=69 / qpstep=4 / vbv_maxrate=40000 / vbv_bufsize=30000 / crf_max=30.0 / nal_hrd=none / ip_ratio=1.40 / aq=1:0.90
Язык : English
Default : Да
Forced : Нет
Аудио #1
Идентификатор : 2
Формат : AC-3
Формат/Информация : Audio Coding 3
Расширение режима : CM (complete main)
Параметр Endianness формата : Big
Режим смешивания : Header stripping
Идентификатор кодека : A_AC3
Продолжительность : 1 ч. 41 м.
Вид битрейта : Постоянный
Битрейт : 640 Кбит/сек
Каналы : 6 каналов
Расположение каналов : Front: L C R, Side: L R, LFE
Частота : 48,0 КГц
Битовая глубина : 16 бит
Метод сжатия : С потерями
Размер потока : 464 Мбайт (4%)
Заголовок : Дубляж
Язык : Russian
Default : Да
Forced : Нет
Аудио #2
Идентификатор : 3
Формат : AC-3
Формат/Информация : Audio Coding 3
Расширение режима : CM (complete main)
Параметр Endianness формата : Big
Режим смешивания : Header stripping
Идентификатор кодека : A_AC3
Продолжительность : 1 ч. 41 м.
Вид битрейта : Постоянный
Битрейт : 640 Кбит/сек
Каналы : 6 каналов
Расположение каналов : Front: L C R, Side: L R, LFE
Частота : 48,0 КГц
Битовая глубина : 16 бит
Метод сжатия : С потерями
Размер потока : 464 Мбайт (4%)
Заголовок : Original
Язык : English
Default : Нет
Forced : Нет
Текст
Идентификатор : 4
Формат : UTF-8
Идентификатор кодека : S_TEXT/UTF8
Идентификатор кодека/Информация : UTF-8 Plain Text
Заголовок : Forced
Язык : Russian
Default : Да
Forced : Нет
Меню
00:00:00.000 : en:00:00:00.000
00:02:42.412 : en:00:02:42.412
00:06:00.819 : en:00:06:00.819
00:11:52.253 : en:00:11:52.253
00:16:02.795 : en:00:16:02.795
00:22:04.240 : en:00:22:04.240
00:28:24.453 : en:00:28:24.453
00:34:03.833 : en:00:34:03.833
00:38:06.284 : en:00:38:06.284
00:42:12.613 : en:00:42:12.613
00:48:39.291 : en:00:48:39.291
00:55:49.429 : en:00:55:49.429
01:00:47.894 : en:01:00:47.894
01:07:50.650 : en:01:07:50.650
01:15:34.864 : en:01:15:34.864
01:24:15.842 : en:01:24:15.842
01:30:22.417 : en:01:30:22.417
01:34:19.195 : en:01:34:19.195

Особенности релиза:

Справа и слева у видеоряда обрезано по 248р, что дает возможность просмотра на полный экран (без черных полос) на телевизорах с соотношением сторон 16:9 без изменения пропорций. На мой взгляд плюсы данных рипов- это более глубокое восприятие 3D-эффектов (конечно там где они есть) К минусам отнесу- вынужденное обрезание кадра по бокам. Так-что господа- выбор за вами!
Всем приятного просмотра!
Проверено на встроенном плейере ТВ Samsung-D6500Скриншоты:
Время раздачи: 24/7 - круглосуточно до 5 скачавших

[Цитировать]



Показать сообщения:    

Текущее время: 10-Дек 08:04

Часовой пояс: UTC + 3


Вы не можете начинать темы
Вы не можете отвечать на сообщения
Вы не можете редактировать свои сообщения
Вы не можете удалять свои сообщения
Вы не можете голосовать в опросах
Вы не можете прикреплять файлы к сообщениям
Вы не можете скачивать файлы

!ВНИМАНИЕ!
Сайт не предоставляет электронные версии произведений, а занимается лишь коллекционированием и каталогизацией ссылок, присылаемых и публикуемых на форуме нашими читателями. Если вы являетесь правообладателем какого-либо представленного материала и не желаете, чтобы ссылка на него находилась в нашем каталоге, свяжитесь с нами, и мы незамедлительно удалим ее. Файлы для обмена на трекере предоставлены пользователями сайта, и администрация не несет ответственности за их содержание. Просьба не заливать файлы, защищенные авторскими правами, а также файлы нелегального содержания!