[ Сегодня идет свободное скачивание без начисления Download ]


Статистика раздачи
Нет
 
   
 
Top  
 
 
-Блуберри / Blueberry (2004) BDRip Русское название: Блуберри
Оригинальное название: Blueberry
Год выпуска: 2004
Жанр: Фэнтези, Приключения, Вестерн
Описание фильма:
Майк Блуберри — искатель приключений с Дикого Запада, работающий шерифом в небольшом захолустном городке, заводит странную дружбу с индейцами, которые когда-то спасли его от верной гибели. Однажды в городке появляется таинственный незнакомец по имени Блонт, и Майк с удивлением узнает в нем своего заклятого врага, первая встреча с которым чуть не стоила Блуберри жизни. На этот раз Блонт охотится за несметными сокровищами, спрятанными индейцами в Скалистых горах. Жаждущий мести, Блуберри отправляется за ним в погоню…
Режиссер: Ян Кунен
Актеры: Венсан Кассель, Джульетт Льюис, Майкл Мэдсен, Темуэра Моррисон, Эрнест Боргнайн, Джимон Хунсу, Хью О’Конор, Джеффри Льюис, Николь Хильтц, Катери Уолкер
Продолжительность: 02:03:41
Перевод: Дублированный, Двухголосый закадровый

Дата мировой премьеры: 11 февраля 2004
Дата российской премьеры: 19 февраля 2004, «Централ Партнершип»
Видеокодек: Xvid
Битрейт видео: ~1779 kbps
Размер кадра: 720x304
Качество видео: BDRip
Аудио#1: 48 kHz, AC3 5.1, 384.00 kbps | Русский (Дублированный)
Аудио#2: 48 kHz, AC3 2.0, 192.00 kbps | Украинский (Двухголосый закадровый)

MediaInfo

Общее
Полное имя : D:Blueberry.2004.BDRip.avi
Формат : AVI
Формат/Информация : Audio Video Interleave
Профиль формата : OpenDML
Размер файла : 2,05 Гбайт
Продолжительность : 2 ч. 3 м.
Общий поток : 2374 Кбит/сек
Название фильма : Блуберри / Blueberry (2004) BDRip
Программа кодирования : VirtualDubModRus 1.5.10.2 (build 2542/release)
Библиотека кодирования : VirtualDubMod build 2542/release
Правообладатель : rip by Rulya74
Видео
Идентификатор : 0
Формат : MPEG-4 Visual
Профиль формата : Advanced Simple@L5
Параметр BVOP формата : 2
Параметр QPel формата : Нет
Параметр GMC формата : Без точки перехода
Параметр матрицы формата : Default (H.263)
Режим смешивания : Сжатый битовый поток
Идентификатор кодека : XVID
Идентификатор кодека/Подсказка : XviD
Продолжительность : 2 ч. 3 м.
Битрейт : 1779 Кбит/сек
Ширина : 720 пикселей
Высота : 304 пикселя
Соотношение сторон : 2,35:1
Частота кадров : 24,000 кадра/сек
Цветовое пространство : YUV
Субдискретизация насыщенности : 4:2:0
Битовая глубина : 8 бит
Тип развёртки : Прогрессивная
Метод сжатия : С потерями
Бит/(Пиксели*Кадры) : 0.339
Размер потока : 1,54 Гбайт (75%)
Библиотека кодирования : XviD 65
Аудио #1
Идентификатор : 1
Формат : AC-3
Формат/Информация : Audio Coding 3
Расширение режима : CM (complete main)
Идентификатор кодека : 2000
Продолжительность : 2 ч. 3 м.
Вид битрейта : Постоянный
Битрейт : 384 Кбит/сек
Каналы : 6 каналов
Расположение каналов : Front: L C R, Side: L R, LFE
Частота : 48,0 КГц
Битовая глубина : 16 бит
Метод сжатия : С потерями
Размер потока : 340 Мбайт (16%)
Выравнивание : Разделение по промежуткам
Продолжительность промежутка : 42 мс. (1,00 видеокадр)
Время предзагрузки промежутка : 500 мс.
Заголовок : Дубляж [R5]
Аудио #2
Идентификатор : 2
Формат : AC-3
Формат/Информация : Audio Coding 3
Расширение режима : CM (complete main)
Идентификатор кодека : 2000
Продолжительность : 2 ч. 3 м.
Вид битрейта : Постоянный
Битрейт : 192 Кбит/сек
Каналы : 2 канала
Расположение каналов : Front: L R
Частота : 48,0 КГц
Битовая глубина : 16 бит
Метод сжатия : С потерями
Размер потока : 170 Мбайт (8%)
Выравнивание : Разделение по промежуткам
Продолжительность промежутка : 42 мс. (1,00 видеокадр)
Время предзагрузки промежутка : 500 мс.
Заголовок : Двухголосый закадровый
Скриншоты:

Время раздачи: с 9:00 до 23:00

[Цитировать]



Показать сообщения:    

Текущее время: 08-Дек 01:16

Часовой пояс: UTC + 3


Вы не можете начинать темы
Вы не можете отвечать на сообщения
Вы не можете редактировать свои сообщения
Вы не можете удалять свои сообщения
Вы не можете голосовать в опросах
Вы не можете прикреплять файлы к сообщениям
Вы не можете скачивать файлы

!ВНИМАНИЕ!
Сайт не предоставляет электронные версии произведений, а занимается лишь коллекционированием и каталогизацией ссылок, присылаемых и публикуемых на форуме нашими читателями. Если вы являетесь правообладателем какого-либо представленного материала и не желаете, чтобы ссылка на него находилась в нашем каталоге, свяжитесь с нами, и мы незамедлительно удалим ее. Файлы для обмена на трекере предоставлены пользователями сайта, и администрация не несет ответственности за их содержание. Просьба не заливать файлы, защищенные авторскими правами, а также файлы нелегального содержания!