[ Сегодня идет свободное скачивание без начисления Download ]


Статистика раздачи
Нет
 
   
 
Top  
 
 
-Я – начало / I Origins (2014) - Год выпуска: 2014
Производство: США, Bersin Pictures, Penny Jane Films, Verisimilitude, WeWork Studio
Жанр: фантастика, драма
Режиссер: Майк Кэхилл / Mike Cahill
Актеры: Майкл Питт, Стивен Ян, Астрид Берже-Фрисби, Брит Марлинг, Дориен Маклоги, Чарльз В. Грэй, Джон Шиумо, Фараша Бэйлок, Ако, Кристофер Сантамария
Описание фильма:
Молодого и перспективного микробиолога повсюду преследует цифра "11". Он не упираясь следует за ней и она приводит его к молодой девушке в которую наш герой безумно влюбляется. Девушка открывает ему мир совсем в другом ракурсе и для него её глаза настоящее "зеркало души". Но девушка умирает. Он погружается в работу, вместе со своей помощницей, делает невероятное открытие, которое меняет понимания всего зарождения жизни людей и это открытие может изменить весь мир...
Перевод: Любительский (одноголосый, закадровый) [PashaUp]
Субтитры: отсутствуют- -Продолжительность: 01:48:07
Качество видео: WEB-DLRip
Видеокодек: Xvid
Битрейт видео: 1529 kbps
Размер кадра: 720x304
Аудиокодек: AC-3
Битрейт аудио: 48 kHz, AC3 Dolby Digital, 3/2 (L,C,R,l,r) + LFE ch, ~384 kbps
Сэмпл: Скачать

MediaInfo:

Общее
Полное имя : D:\film\I.nachalo.2014.avi
Формат : AVI
Формат/Информация : Audio Video Interleave
Размер файла : 1,45 Гбайт
Продолжительность : 1 ч. 48 м.
Общий поток : 1922 Кбит/сек
Программа кодирования : VirtualDubMod 1.5.10.3 | www.virtualdub-fr.org || (build 2550/release)
Библиотека кодирования : VirtualDubMod build 2550/release
Видео
Идентификатор : 0
Формат : MPEG-4 Visual
Профиль формата : Advanced Simple@L5
Параметр BVOP формата : 1
Параметр QPel формата : Нет
Параметр GMC формата : Без точки перехода
Параметр матрицы формата : Выборочная
Идентификатор кодека : XVID
Идентификатор кодека/Подсказка : XviD
Продолжительность : 1 ч. 48 м.
Битрейт : 1529 Кбит/сек
Ширина : 720 пикселей
Высота : 304 пикселя
Соотношение сторон : 2,35:1
Частота кадров : 23,976 кадра/сек
Цветовое пространство : YUV
Субдискретизация насыщенности : 4:2:0
Битовая глубина : 8 бит
Тип развёртки : Прогрессивная
Метод сжатия : С потерями
Бит/(Пиксели*Кадры) : 0.291
Размер потока : 1,15 Гбайт (80%)
Библиотека кодирования : XviD 73
Аудио
Идентификатор : 1
Формат : AC-3
Формат/Информация : Audio Coding 3
Расширение режима : CM (complete main)
Параметр Endianness формата : Big
Идентификатор кодека : 2000
Продолжительность : 1 ч. 48 м.
Вид битрейта : Постоянный
Битрейт : 384 Кбит/сек
Каналы : 6 каналов
Расположение каналов : Front: L C R, Side: L R, LFE
Частота : 48,0 КГц
Битовая глубина : 16 бит
Метод сжатия : С потерями
Размер потока : 297 Мбайт (20%)
Выравнивание : Разделение по промежуткам
Продолжительность промежутка : 42 мс. (1,00 видеокадр)
Время предзагрузки промежутка : 500 мс.
Скриншоты: Время раздачи: По возможности. До первых 5 сидов.

[Цитировать]



Показать сообщения:    

Текущее время: 07-Дек 17:34

Часовой пояс: UTC + 3


Вы не можете начинать темы
Вы не можете отвечать на сообщения
Вы не можете редактировать свои сообщения
Вы не можете удалять свои сообщения
Вы не можете голосовать в опросах
Вы не можете прикреплять файлы к сообщениям
Вы не можете скачивать файлы

!ВНИМАНИЕ!
Сайт не предоставляет электронные версии произведений, а занимается лишь коллекционированием и каталогизацией ссылок, присылаемых и публикуемых на форуме нашими читателями. Если вы являетесь правообладателем какого-либо представленного материала и не желаете, чтобы ссылка на него находилась в нашем каталоге, свяжитесь с нами, и мы незамедлительно удалим ее. Файлы для обмена на трекере предоставлены пользователями сайта, и администрация не несет ответственности за их содержание. Просьба не заливать файлы, защищенные авторскими правами, а также файлы нелегального содержания!