[ Сегодня идет свободное скачивание без начисления Download ]


Статистика раздачи
Нет
 
   
 
Top  
 
 
-Полный вперед (2014) SATRip- Год выпуска: 2014
Производство: Россия
Жанр: Приключения, Комедия, Семейный
Дата мировой премьеры: 30 ноября 2014
Дата российской премьеры: 30 ноября 2014
Режиссер: Алла Сурикова
Актеры: Николай Фоменко, Даниэла Стоянович, Оскар Кучера, Ольга Прокофьева, Владимир Еремин, Прохор Тесленко, Николай Наумов, Полина Медведева, Галина Медведева, Эсфирь Левина
Описание фильма:
Мальчик Федя 8-9 лет хочет во что бы то ни стало участвовать в эстафете. А для этого ему нужны мама и папа, потому что эстафета объявлена семейной. Мама у Феди есть. А вот папа… Папу он обретает сам — невольный домушник, случайно «впорхнувший» в его окно, под натиском Феди становится на время его «как бы папой».
Преодолевая препятствия, герои не только проходят проверку на физическую выносливость и смелость, но и не раз встают перед нравственным выбором. Каждый решает его по-своему. Забавно и трогательно, мужественно и решительно, неожиданно и волнительно… И победа для каждого своя.

Продолжительность: 01:30:27
Качество видео: SATRip
Видеокодек: Xvid
Битрейт видео: ~1960 Кбит/с
Размер кадра: 720x400
Аудиокодек: MP3
Битрейт аудио: 2 ch, 192 Кбит/с
Сэмпл: Скачать

MediaInfo

General
Complete name : \Polnij.vpered.2014.XviD.SATRip.avi
Format : AVI
Format/Info : Audio Video Interleave
File size : 1.36 GiB
Duration : 1h 30mn
Overall bit rate : 2 159 Kbps
Writing application : VirtualDubMod 1.5.10.2 (build 2540/release)
Writing library : VirtualDubMod build 2540/release
Video
ID : 0
Format : MPEG-4 Visual
Format profile : Advanced Simple@L5
Format settings, BVOP : 1
Format settings, QPel : No
Format settings, GMC : No warppoints
Format settings, Matrix : Custom
Codec ID : XVID
Codec ID/Hint : XviD
Duration : 1h 30mn
Bit rate : 1 957 Kbps
Width : 720 pixels
Height : 400 pixels
Display aspect ratio : 16:9
Frame rate : 25.000 fps
Color space : YUV
Chroma subsampling : 4:2:0
Bit depth : 8 bits
Scan type : Progressive
Compression mode : Lossy
Bits/(Pixel*Frame) : 0.272
Stream size : 1.24 GiB (91%)
Writing library : XviD 1.2.1 (UTC 2008-12-04)
Audio
ID : 1
Format : MPEG Audio
Format version : Version 1
Format profile : Layer 3
Mode : Joint stereo
Mode extension : MS Stereo
Codec ID : 55
Codec ID/Hint : MP3
Duration : 1h 30mn
Bit rate mode : Constant
Bit rate : 192 Kbps
Channel(s) : 2 channels
Sampling rate : 48.0 KHz
Compression mode : Lossy
Stream size : 124 MiB (9%)
Alignment : Aligned on interleaves
Interleave, duration : 40 ms (1.00 video frame)
Interleave, preload duration : 504 ms
Writing library : LAME3.98r
Encoding settings : -m j -V 4 -q 2 -lowpass 18.6 -b 192
Скриншоты: Время раздачи: 24/7 до 5-ти скачавших

[Цитировать]

Топик был перенесен из форума Новинки кинопроката в форум Приключения / Исторический
Henkok



Показать сообщения:    

Текущее время: 07-Дек 15:29

Часовой пояс: UTC + 3


Вы не можете начинать темы
Вы не можете отвечать на сообщения
Вы не можете редактировать свои сообщения
Вы не можете удалять свои сообщения
Вы не можете голосовать в опросах
Вы не можете прикреплять файлы к сообщениям
Вы не можете скачивать файлы

!ВНИМАНИЕ!
Сайт не предоставляет электронные версии произведений, а занимается лишь коллекционированием и каталогизацией ссылок, присылаемых и публикуемых на форуме нашими читателями. Если вы являетесь правообладателем какого-либо представленного материала и не желаете, чтобы ссылка на него находилась в нашем каталоге, свяжитесь с нами, и мы незамедлительно удалим ее. Файлы для обмена на трекере предоставлены пользователями сайта, и администрация не несет ответственности за их содержание. Просьба не заливать файлы, защищенные авторскими правами, а также файлы нелегального содержания!