[ Сегодня идет свободное скачивание без начисления Download ]


Статистика раздачи
Нет
 
   
 
Top  
 
 
-День дурака (2014) WEB-DLRip--«Мы отыграемся по полной»-- Год выпуска: 2014
Производство: Россия / Базелевс Продакшн
Жанр: Комедия, Приключения
Режиссер: Александр Баранов
Продюсер: Тимур Бекмамбетов, Мария Затуловская, Сюзанна Муазен
Актеры: Алексей Веселкин, Александр Лыков, Светлана Чуйкина, Сергей Беляев, Сергей Удовик, Александр Воробьев, Игорь Кистол, Дмитрий Белоцерковский, Антон Васильев, Антонина Дивина
Описание фильма:
Ванька работает швейцаром в гостинице. Он ненавидит ее обеспеченных постояльцев, но при этом мечтает пожить их роскошной жизнью. А пока вынужден жить в машине, купленной в кредит, так как из съемной квартиры его выгнали за неуплату. В этой и без того непростой ситуации на голову парня сваливается коллектор Сергей Сергеевич, который твердо решил выбить из Ваньки долг. Чтобы хоть как-то отсрочить расправу, Ванька выдает себя за сына богатого фермера, который с легкостью погасит кредит. Но по дороге на ферму попутчики поневоле попадают в аварию, которая оборачивается для Ваньки неожиданным спасением. Нечистый на руку мэр провинциального городка и вороватые сотрудники его администрации принимают московских гостей за представителей Следственного комитета. Вчерашнего швейцара ждет королевский прием и взятка в виде руки и сердца мэрской дочки… или скандальное разоблачение.
Перевод: Не требуется (русский)
Субтитры: Отсутствуют

Дата мировой премьеры: 13 ноября 2014
Дата российской премьеры: 3 ноября 2014, «Bazelevs Distribution»
Продолжительность: 01:30:15
Качество видео: WEB-DLRip
Видеокодек: Xvid
Битрейт видео: ~1967 kb/s
Размер кадра: 720x304
Аудиокодек: AC3 2.0
Битрейт аудио: 192 kb/s
Сэмпл: Скачать

MediaInfo:

Общее
Полное имя                               : Den.duraka.2014.O.WEB-DLRip.1400MB.nnm-club.avi
Формат                                   : AVI
Формат/Информация                        : Audio Video Interleave
Размер файла                             : 1,37 Гбайт
Продолжительность                        : 1 ч. 30 м.
Общий поток                              : 2168 Кбит/сек
Программа кодирования                    : VirtualDubMod 1.5.10.3 || (build 2550/release)
Библиотека кодирования                   : VirtualDubMod build 2550/release
Видео
Идентификатор                            : 0
Формат                                   : MPEG-4 Visual
Профиль формата                          : Advanced Simple@L5
Параметр BVOP формата                    : 2
Параметр QPel формата                    : Нет
Параметр GMC формата                     : Без точки перехода
Параметр матрицы формата                 : Default (MPEG)
Идентификатор кодека                     : XVID
Идентификатор кодека/Подсказка           : XviD
Продолжительность                        : 1 ч. 30 м.
Битрейт                                  : 1967 Кбит/сек
Ширина                                   : 720 пикселей
Высота                                   : 304 пикселя
Соотношение сторон                       : 2,35:1
Частота кадров                           : 24,000 кадра/сек
Цветовое пространство                    : YUV
Субдискретизация насыщенности            : 4:2:0
Битовая глубина                          : 8 бит
Тип развёртки                            : Прогрессивная
Метод сжатия                             : С потерями
Бит/(Пиксели*Кадры)                      : 0.374
Размер потока                            : 1,24 Гбайт (91%)
Библиотека кодирования                   : XviD 1.2.1 (UTC 2008-12-04)
Аудио
Идентификатор                            : 1
Формат                                   : AC-3
Формат/Информация                        : Audio Coding 3
Расширение режима                        : CM (complete main)
Параметр Endianness формата              : Big
Идентификатор кодека                     : 2000
Продолжительность                        : 1 ч. 30 м.
Вид битрейта                             : Постоянный
Битрейт                                  : 192 Кбит/сек
Каналы                                   : 2 канала
Расположение каналов                     : Front: L R
Частота                                  : 48,0 КГц
Битовая глубина                          : 16 бит
Метод сжатия                             : С потерями
Размер потока                            : 124 Мбайт (9%)
Выравнивание                             : Разделение по промежуткам
Продолжительность промежутка             : 42  мс. (1,00 видеокадр)
Время предзагрузки промежутка            : 500  мс.
Скриншоты:
Время раздачи: 24/7 (до 10 скачавших)

[Цитировать]

Топик был перенесен из форума Новинки кинопроката в форум Комедия
Henkok



Показать сообщения:    

Текущее время: 07-Дек 11:45

Часовой пояс: UTC + 3


Вы не можете начинать темы
Вы не можете отвечать на сообщения
Вы не можете редактировать свои сообщения
Вы не можете удалять свои сообщения
Вы не можете голосовать в опросах
Вы не можете прикреплять файлы к сообщениям
Вы не можете скачивать файлы

!ВНИМАНИЕ!
Сайт не предоставляет электронные версии произведений, а занимается лишь коллекционированием и каталогизацией ссылок, присылаемых и публикуемых на форуме нашими читателями. Если вы являетесь правообладателем какого-либо представленного материала и не желаете, чтобы ссылка на него находилась в нашем каталоге, свяжитесь с нами, и мы незамедлительно удалим ее. Файлы для обмена на трекере предоставлены пользователями сайта, и администрация не несет ответственности за их содержание. Просьба не заливать файлы, защищенные авторскими правами, а также файлы нелегального содержания!