[ Сегодня идет свободное скачивание без начисления Download ]


Статистика раздачи
Нет
 
   
 
Top  
 
 
-Магия лунного света / Magic in the Moonlight (2014) BDRip- Год выпуска: 2014
Производство: США / Dippermouth, Perdido Productions, Ske-Dat-De-Dat Productions
Жанр: Мелодрама, Комедия
Перевод: Дублированый (Чистый звук)
Субтитры: Отсутствуют
Режиссер: Вуди Аллен
Актеры: Колин Фёрт, Эмма Стоун, Марша Гей Харден, Хамиш Линклэйтер, Саймон МакБерни, Джеки Уивер, Айлин Эткинс, Эрика Лирсен, Джереми Шамос, Катрин МакКормак
Описание фильма: 1928 год. Выдающийся иллюзионист по просьбе своего друга и коллеги приезжает на Лазурный Берег разоблачить молодую привлекательную шарлатанку, якобы умеющую вызывать духов умерших. Она очаровала богатого наследника и его мать-вдову, а это не устраивает других членов семьи.-
Дата мировой премьеры: 25 июля 2014
Дата мировой премьеры: 25 сентября 2014, «Централ Партнершип»-Продолжительность: 01:37:37
Качество видео: BDRip (профиль LQ)
Видео: MPEG-4 AVC, 9706 Кбит/с, 1920x808
Аудио 1: Русский AC3, 2 ch, 384 Кбит/с |Дублированный ( line)|
Аудио 2: Русский AC3, 6 ch, 640 Кбит/с |Дублированный (центральный канал line)| спасибо - WetY
Аудио 3: Английский DTS, 6 ch, 1510 Кбит/с

MediaInfo:

Общее
Уникальный идентификатор : 177822761081091057379629442379963046892 (0x85C76B0467BF972FA7885CCBBDF21BEC)
Полное имя : \Магия.лунного.света_Magic.in.the.Moonlight.2014.1080p.mkv
Формат : Matroska
Версия формата : Version 4 / Version 2
Размер файла : 8,34 Гбайт
Продолжительность : 1 ч. 37 м.
Общий поток : 12,2 Мбит/сек
Название фильма : Магия.лунного.света_Magic.in.the.Moonlight.2014.1080p
Дата кодирования : UTC 2010-02-22 21:41:31
Программа кодирования : mkvmerge v5.8.0 ('No Sleep / Pillow') built on Nov 13 2012 19:43:22
Библиотека кодирования : libebml v1.3.0 + libmatroska v1.4.0
Видео
Идентификатор : 1
Формат : AVC
Формат/Информация : Advanced Video Codec
Профиль формата : High@L4.1
Параметр CABAC формата : Да
Параметр ReFrames формата : 5 кадров
Идентификатор кодека : V_MPEG4/ISO/AVC
Продолжительность : 1 ч. 37 м.
Битрейт : 9706 Кбит/сек
Ширина : 1920 пикселей
Высота : 808 пикселей
Соотношение сторон : 2,40:1
Режим частоты кадров : Постоянный
Частота кадров : 23,976 кадра/сек
Цветовое пространство : YUV
Субдискретизация насыщенности : 4:2:0
Битовая глубина : 8 бит
Тип развёртки : Прогрессивная
Бит/(Пиксели*Кадры) : 0.261
Размер потока : 6,45 Гбайт (77%)
Заголовок : Магия.лунного.света_Magic.in.the.Moonlight.2014.1080p
Библиотека кодирования : x264 core 142 r2479 dd79a61
Настройки программы : cabac=1 / ref=5 / deblock=1:0:0 / analyse=0x3:0x133 / me=umh / subme=7 / psy=1 / psy_rd=1.00:0.00 / mixed_ref=1 / me_range=16 / chroma_me=1 / trellis=1 / 8x8dct=1 / cqm=0 / deadzone=21,11 / fast_pskip=0 / chroma_qp_offset=-2 / threads=18 / lookahead_threads=3 / sliced_threads=0 / nr=0 / decimate=1 / interlaced=0 / bluray_compat=0 / constrained_intra=0 / bframes=3 / b_pyramid=2 / b_adapt=1 / b_bias=0 / direct=1 / weightb=1 / open_gop=0 / weightp=2 / keyint=250 / keyint_min=23 / scenecut=40 / intra_refresh=0 / rc_lookahead=40 / rc=2pass / mbtree=1 / bitrate=9706 / ratetol=1.0 / qcomp=0.60 / qpmin=0 / qpmax=69 / qpstep=4 / cplxblur=20.0 / qblur=0.5 / ip_ratio=1.40 / aq=1:1.00
Язык : English
Default : Да
Forced : Нет
Аудио #1
Идентификатор : 2
Формат : AC-3
Формат/Информация : Audio Coding 3
Расширение режима : CM (complete main)
Параметр Endianness формата : Big
Идентификатор кодека : A_AC3
Продолжительность : 1 ч. 37 м.
Вид битрейта : Постоянный
Битрейт : 384 Кбит/сек
Каналы : 2 канала
Расположение каналов : Front: L R
Частота : 48,0 КГц
Битовая глубина : 16 бит
Метод сжатия : С потерями
Размер потока : 268 Мбайт (3%)
Заголовок : Дубляж (Line)
Язык : Russian
Default : Да
Forced : Нет
Аудио #2
Идентификатор : 3
Формат : AC-3
Формат/Информация : Audio Coding 3
Расширение режима : CM (complete main)
Параметр Endianness формата : Big
Идентификатор кодека : A_AC3
Продолжительность : 1 ч. 37 м.
Вид битрейта : Постоянный
Битрейт : 640 Кбит/сек
Каналы : 6 каналов
Расположение каналов : Front: L C R, Side: L R, LFE
Частота : 48,0 КГц
Битовая глубина : 16 бит
Метод сжатия : С потерями
Размер потока : 447 Мбайт (5%)
Заголовок : Дублированный (центральный канал line)
Язык : Russian
Default : Нет
Forced : Нет
Аудио #3
Идентификатор : 4
Формат : DTS
Формат/Информация : Digital Theater Systems
Режим : 16
Параметр Endianness формата : Big
Идентификатор кодека : A_DTS
Продолжительность : 1 ч. 37 м.
Вид битрейта : Постоянный
Битрейт : 1509 Кбит/сек
Каналы : 6 каналов
Расположение каналов : Front: L C R, Side: L R, LFE
Частота : 48,0 КГц
Битовая глубина : 24 бит
Метод сжатия : С потерями
Размер потока : 1,03 Гбайт (12%)
Язык : English
Default : Нет
Forced : Нет
Меню
00:00:00.000 : en:00:00:00.000
00:09:37.494 : en:00:09:37.494
00:16:11.596 : en:00:16:11.596
00:20:17.633 : en:00:20:17.633
00:26:40.724 : en:00:26:40.724
00:32:47.966 : en:00:32:47.966
00:37:48.600 : en:00:37:48.600
00:43:56.259 : en:00:43:56.259
00:49:36.557 : en:00:49:36.557
00:53:57.192 : en:00:53:57.192
00:59:15.385 : en:00:59:15.385
01:05:28.675 : en:01:05:28.675
01:10:43.030 : en:01:10:43.030
01:18:20.195 : en:01:18:20.195
01:24:43.996 : en:01:24:43.996
01:29:39.666 : en:01:29:39.666

Знаете ли Вы, что...

-----------------
Скриншоты:


Время раздачи: круглогодично

[Цитировать]



Показать сообщения:    

Текущее время: 10-Дек 04:08

Часовой пояс: UTC + 3


Вы не можете начинать темы
Вы не можете отвечать на сообщения
Вы не можете редактировать свои сообщения
Вы не можете удалять свои сообщения
Вы не можете голосовать в опросах
Вы не можете прикреплять файлы к сообщениям
Вы не можете скачивать файлы

!ВНИМАНИЕ!
Сайт не предоставляет электронные версии произведений, а занимается лишь коллекционированием и каталогизацией ссылок, присылаемых и публикуемых на форуме нашими читателями. Если вы являетесь правообладателем какого-либо представленного материала и не желаете, чтобы ссылка на него находилась в нашем каталоге, свяжитесь с нами, и мы незамедлительно удалим ее. Файлы для обмена на трекере предоставлены пользователями сайта, и администрация не несет ответственности за их содержание. Просьба не заливать файлы, защищенные авторскими правами, а также файлы нелегального содержания!