[ Сегодня идет свободное скачивание без начисления Download ]


Статистика раздачи
Нет
 
   
 
Top  
 
 
-Сын ворона (2014) SATRip (сезон 1,серии 1-8 из 8) ]- Год выпуска: 2014
Жанр: фэнтези, приключения
Режиссер: Александр Щурихин
Актеры: Александр Прудников, Светлана Левичева, Юлия Подозёрова, Николай Сахаров, Максим Башкин, Надежда Бахтина, Борис Щербаков, Ольга Бынкова, Сергей Горбачев (II), Николай Зазуля, Александр Давыдов (III), Диана Морозова, Олег Лебедев-Бовольский, Максимилиан Потёмкин, Андрей Ланд, Вячеслав Ганенко
Описание фильма:
XII век. В ночном море пираты Балтийского побережья замечают купеческий ког. Бандиты зажигают фальш-маяк и вскоре судно налетает на рифы. Собирая выброшенную на берег добычу, пираты обнаруживают под светом факелов люльку с ребенком, который чудом остался в живых. На край колыбели садится ворон. Ясно, что это знак, посланный богами с небес. У местного вождя Радомира когда-то в одном из набегов погиб сын, поэтому он усыновляет младенца и дает ему имя Роарг, что значит "сын ворона"...

Дата российской премьеры: 13 декабря 2014 (Россия-2)
Продолжительность: ~00:45:00 серия
Качество видео: SATRip
Сэмпл: Скачать
Видеокодек: Xvid
Битрейт видео: ~1596 Кбит/сек
Размер кадра: 720x400 (16:9)
Аудиокодек: AC3
Битрейт аудио: 192 kb/s, 2 ch

Mediainfo:

Общее
Полное имя                               : H:\Сын ворона\01 серия.avi
Формат                                   : AVI
Формат/Информация                        : Audio Video Interleave
Размер файла                             : 551 Мбайт
Продолжительность                        : 42 м.
Общий поток                              : 1797 Кбит/сек
Программа кодирования                    : VirtualDubMod 1.5.10.3 | [url=http://www.virtualdub-fr.org]www.virtualdub-fr.org[/url] || (build 2550/release)
Библиотека кодирования                   : VirtualDubMod build 2550/release
Видео
Идентификатор                            : 0
Формат                                   : MPEG-4 Visual
Профиль формата                          : Advanced Simple@L5
Параметр BVOP формата                    : 2
Параметр QPel формата                    : Нет
Параметр GMC формата                     : Без точки перехода
Параметр матрицы формата                 : Выборочная
Идентификатор кодека                     : XVID
Идентификатор кодека/Подсказка           : XviD
Продолжительность                        : 42 м.
Битрейт                                  : 1596 Кбит/сек
Ширина                                   : 720 пикселей
Высота                                   : 400 пикселей
Соотношение сторон                       : 16:9
Частота кадров                           : 25,000 кадров/сек
Цветовое пространство                    : YUV
Субдискретизация насыщенности            : 4:2:0
Битовая глубина                          : 8 бит
Тип развёртки                            : Прогрессивная
Метод сжатия                             : С потерями
Бит/(Пиксели*Кадры)                      : 0.222
Размер потока                            : 489 Мбайт (89%)
Библиотека кодирования                   : XviD 73
Аудио
Идентификатор                            : 1
Формат                                   : AC-3
Формат/Информация                        : Audio Coding 3
Расширение режима                        : CM (complete main)
Параметр Endianness формата              : Big
Идентификатор кодека                     : 2000
Продолжительность                        : 42 м.
Вид битрейта                             : Постоянный
Битрейт                                  : 192 Кбит/сек
Каналы                                   : 2 канала
Расположение каналов                     : Front: L R
Частота                                  : 48,0 КГц
Битовая глубина                          : 16 бит
Метод сжатия                             : С потерями
Размер потока                            : 58,9 Мбайт (11%)
Выравнивание                             : Разделение по промежуткам
Продолжительность промежутка             : 40  мс. (1,00 видеокадр)
Время предзагрузки промежутка            : 500  мс.
Скриншоты:

Время раздачи: По возможности

[Цитировать]



Показать сообщения:    

Текущее время: 08-Дек 17:10

Часовой пояс: UTC + 3


Вы не можете начинать темы
Вы не можете отвечать на сообщения
Вы не можете редактировать свои сообщения
Вы не можете удалять свои сообщения
Вы не можете голосовать в опросах
Вы не можете прикреплять файлы к сообщениям
Вы не можете скачивать файлы

!ВНИМАНИЕ!
Сайт не предоставляет электронные версии произведений, а занимается лишь коллекционированием и каталогизацией ссылок, присылаемых и публикуемых на форуме нашими читателями. Если вы являетесь правообладателем какого-либо представленного материала и не желаете, чтобы ссылка на него находилась в нашем каталоге, свяжитесь с нами, и мы незамедлительно удалим ее. Файлы для обмена на трекере предоставлены пользователями сайта, и администрация не несет ответственности за их содержание. Просьба не заливать файлы, защищенные авторскими правами, а также файлы нелегального содержания!