[ Сегодня идет свободное скачивание без начисления Download ]


Статистика раздачи
Нет
 
   
 
Top  
 
 
-Исчезнувшая / Gone Girl (2014) WEB-DL [720p] [Line] -«Что имеем — не храним,
потерявши — плачем»
- Год выпуска: 2014
Производство: США / Artemple - Hollywood, New Regency Pictures
Жанр: Триллер, Детектив, Драма
Режиссер: Дэвид Финчер
Продюсер: Сиан Чаффин, Джошуа Донен, Арнон Милчэн
Актеры: Розамунд Пайк, Бен Аффлек, Нил Патрик Харрис, Мисси Пайл, Скут МакНэйри, Кэрри Кун, Тайлер Перри, Ли Норрис, Бойд Холбрук, Патрик Фьюджит
Описание фильма:
Все было готово для празднования пятилетнего юбилея супружеской жизни, когда вдруг необъяснимо пропал один из виновников торжества. Остались следы борьбы в доме, кровь, которую явно пытались стереть, - и цепочка «ключей» в игре под названием «охота за сокровищами»; красивая, умная и невероятно изобретательная жена ежегодно устраивала ее для своего обожаемого мужа. И похоже, что эти «ключи» - размещенные ею тут и там странные записки и не менее странные безделушки - дают единственный шанс пролить свет на судьбу исчезнувшей. Вот только не придется ли «охотнику» в процессе поиска раскрыть миру и пару-тройку собственных малосимпатичных тайн?
Перевод: Дублированный (Чистый звук), одноголосый, закадровый (А. Матвеев)
Субтитры: Вшитые отключаемые
Язык субтитров: Английский-
Дата мировой премьеры: 26 сентября 2014
Дата российской премьеры: 2 октября 2014, «Двадцатый Век Фокс СНГ»
Дата выхода DVD релиза: 15 января 2015, «Двадцатый Век Фокс СНГ»-Продолжительность: 02:29:15
Качество видео: WEB-DL
Видеокодек: MPEG-4 AVC/H.264
Битрейт видео: 4021 Кбит/сек
Размер кадра: 1280x532
Аудио 1: AC3, 384 Kb/s, (2 ch) |Русский| (Дубляж)
Аудио 2: AC3, 384 Kb/s, (6 ch) |Русский| (AVO)
Аудио 3: AC3, 384 Kb/s, (6 ch) |Английский|

MediaInfo:

Общее
Уникальный идентификатор : 251672614539458381728700340217434021212 (0xBD5661E8662334048D067A3BF4931D5C)
Полное имя : \Исчезнувшая_Gone Girl.2014.WEB-DL.720p.mkv
Формат : Matroska
Версия формата : Version 4 / Version 2
Размер файла : 5,49 Гбайт
Продолжительность : 2 ч. 29 м.
Общий поток : 5265 Кбит/сек
Название фильма : Исчезнувшая_Gone Girl.2014.WEB-DL.720
Дата кодирования : UTC 2010-02-22 21:41:31
Программа кодирования : mkvmerge v5.8.0 ('No Sleep / Pillow') built on Nov 13 2012 19:43:22
Библиотека кодирования : libebml v1.3.0 + libmatroska v1.4.0
Видео
Идентификатор : 1
Формат : AVC
Формат/Информация : Advanced Video Codec
Профиль формата : Main@L3.1
Параметр CABAC формата : Нет
Параметр ReFrames формата : 2 кадра
Идентификатор кодека : V_MPEG4/ISO/AVC
Продолжительность : 2 ч. 29 м.
Битрейт : 4021 Кбит/сек
Ширина : 1280 пикселей
Высота : 532 пикселя
Соотношение сторон : 2,40:1
Режим частоты кадров : Постоянный
Частота кадров : 23,976 кадра/сек
Цветовое пространство : YUV
Субдискретизация насыщенности : 4:2:0
Битовая глубина : 8 бит
Тип развёртки : Прогрессивная
Бит/(Пиксели*Кадры) : 0.246
Размер потока : 4,18 Гбайт (76%)
Заголовок : Исчезнувшая_Gone Girl.2014.WEB-DL.720
Язык : English
Default : Да
Forced : Нет
Основные цвета : BT.709
Характеристики трансфера : BT.709
Коэффициенты матрицы : BT.709
Аудио #1
Идентификатор : 2
Формат : AC-3
Формат/Информация : Audio Coding 3
Расширение режима : CM (complete main)
Параметр Endianness формата : Big
Идентификатор кодека : A_AC3
Продолжительность : 2 ч. 29 м.
Вид битрейта : Постоянный
Битрейт : 384 Кбит/сек
Каналы : 2 канала
Расположение каналов : Front: L R
Частота : 48,0 КГц
Битовая глубина : 16 бит
Метод сжатия : С потерями
Размер потока : 410 Мбайт (7%)
Заголовок : Дубляж (линия)
Язык : Russian
Default : Да
Forced : Нет
Аудио #2
Идентификатор : 3
Формат : AC-3
Формат/Информация : Audio Coding 3
Расширение режима : CM (complete main)
Параметр Endianness формата : Big
Идентификатор кодека : A_AC3
Продолжительность : 2 ч. 29 м.
Вид битрейта : Постоянный
Битрейт : 384 Кбит/сек
Каналы : 6 каналов
Расположение каналов : Front: L C R, Side: L R, LFE
Частота : 48,0 КГц
Битовая глубина : 16 бит
Метод сжатия : С потерями
Размер потока : 410 Мбайт (7%)
Заголовок : A | А. Матвеев
Язык : Russian
Default : Нет
Forced : Нет
Аудио #3
Идентификатор : 4
Формат : AC-3
Формат/Информация : Audio Coding 3
Расширение режима : CM (complete main)
Параметр Endianness формата : Big
Идентификатор кодека : A_AC3
Продолжительность : 2 ч. 29 м.
Вид битрейта : Постоянный
Битрейт : 384 Кбит/сек
Каналы : 6 каналов
Расположение каналов : Front: L C R, Side: L R, LFE
Частота : 48,0 КГц
Битовая глубина : 16 бит
Метод сжатия : С потерями
Размер потока : 410 Мбайт (7%)
Заголовок : Original
Язык : English
Default : Нет
Forced : Нет
Текст
Идентификатор : 5
Формат : UTF-8
Идентификатор кодека : S_TEXT/UTF8
Идентификатор кодека/Информация : UTF-8 Plain Text
Заголовок : Full
Язык : English
Default : Нет
Forced : Нет
Меню
00:00:00.000 : en:1
00:03:26.000 : en:2
00:06:56.000 : en:3
00:08:17.000 : en:4
00:11:56.000 : en:5
00:14:59.000 : en:6
00:18:11.000 : en:7
00:19:54.000 : en:8
00:21:40.000 : en:9
00:23:51.000 : en:10
00:28:32.000 : en:11
00:31:29.000 : en:12
00:34:35.000 : en:13
00:40:47.000 : en:14
00:44:33.000 : en:15
00:46:53.000 : en:16
00:49:15.000 : en:17
00:54:08.000 : en:18
01:00:01.000 : en:19
01:03:11.000 : en:20
01:06:03.000 : en:21
01:12:51.000 : en:22
01:15:07.000 : en:23
01:19:48.000 : en:24
01:21:50.000 : en:25
01:27:17.000 : en:26
01:28:06.000 : en:27
01:33:21.000 : en:28
01:39:27.000 : en:29
01:46:19.000 : en:30
01:50:38.000 : en:31
01:56:32.000 : en:32
01:58:57.000 : en:33
02:02:14.000 : en:34
02:05:26.000 : en:35
02:12:21.000 : en:36
02:16:03.000 : en:37
02:19:47.000 : en:38
02:22:32.000 : en:39
02:24:05.000 : en:40

Знаете ли Вы, что...

Фильм снят по мотивам романа Гиллиан Флинн «Исчезнувшая» (Gone Girl, 2012).
В одном из эпизодов фильма Нил сравнивает Эми с Элизабет Беннет — главной героиней романа Джейн Остин «Гордость и предубеждение». Розамунд Пайк, сыгравшая роль Эми, также сыграла сестру Элизабет — Джейн Беннет в постановке 2005 года.
Одна из сцен фильма происходит в Миссури, в заброшенном торговом центре, ставшем своего рода Меккой для бродяг. Эти сцены снимались в Лос-Анджелесе: наружные съемки проходили возле закрытого магазина Montgomery Ward, а интерьеры снимались в огромном центре Hawthorne Mall.
Риз Уизерспун, Шарлиз Терон, Натали Портман, Эмили Блант, Руни Мара, Оливия Уайлд, Эбби Корниш и Джулианна Хаф рассматривались на роль Эми Данн.
Это первый полнометражный фильм, снятый полностью в разрешении 6k (6144 x 3160).
Несмотря на то что события фильма развиваются в Северном Картаже (штат Миссури), съемки проходили в Кейп-Джирардо (штат Миссури). Кастинг статистов прошел в Rose Theatre в Университете штата в Юго-Восточном Миссури, который также расположен в Кейп-Джирардо.
Бен Аффлек отложил работу над собственным фильмом ради того, чтобы поработать с Дэвидом Финчером. Аффлек сказал: «Он единственный режиссер из всех, что я знаю, который может выполнить чью угодно работу лучше тех людей, которые ей занимаются». Однажды на съемочной площадке Аффлек слегка изменил настройки камеры, поспорив с членом съемочной группы, что Финчер этого не заметит. Но когда начались съемки, Финчер сразу спросил – почему изображение выглядит немного тусклым.
День рождения Бена Аффлека совпадает с днем рождения его персонажа Ника — 15 августа.
Автор романа-первоисточника Гиллиан Флинн написала несколько вариантов финала сценария фильма, чтобы сохранить интерес читателей и зрителей, а также чтобы избежать спойлеров.
Внимание! Дальнейший список фактов о фильме содержит спойлеры. Будьте осторожны.
Готовясь к съемкам, Бен Аффлек разыскал нескольких мужчин, которые были обвинены в убийстве своих жен и осуждены, и побеседовал с ними. В частности, собеседником Аффлека стал Скотт Петерсон, ожидающий исполнения смертного приговора в калифорнийской тюрьме.
Ошибки в фильме
В одном из эпизодов, действие которого, согласно сюжету, разворачивается в 2010 году, герой Бена Аффлека играет в видеоигру. Он никак не мог играть в эту игру, т. к. она вышла только в 2011 году. Речь идет о «Battlefield 3».
Скриншоты:

Время раздачи: круглогодичноИграю на аккордеоне за "Спасибо"

[Цитировать]



Показать сообщения:    

Текущее время: 24-Мар 12:18

Часовой пояс: UTC + 6


Вы не можете начинать темы
Вы не можете отвечать на сообщения
Вы не можете редактировать свои сообщения
Вы не можете удалять свои сообщения
Вы не можете голосовать в опросах
Вы не можете прикреплять файлы к сообщениям
Вы не можете скачивать файлы

!ВНИМАНИЕ!
Сайт не предоставляет электронные версии произведений, а занимается лишь коллекционированием и каталогизацией ссылок, присылаемых и публикуемых на форуме нашими читателями. Если вы являетесь правообладателем какого-либо представленного материала и не желаете, чтобы ссылка на него находилась в нашем каталоге, свяжитесь с нами, и мы незамедлительно удалим ее. Файлы для обмена на трекере предоставлены пользователями сайта, и администрация не несет ответственности за их содержание. Просьба не заливать файлы, защищенные авторскими правами, а также файлы нелегального содержания!