[ Сегодня идет свободное скачивание без начисления Download ]


Статистика раздачи
Нет
 
   
 
Top  
 
 
-Великий уравнитель / The Equalizer (2014) BDRemux- Год выпуска: 2014
Производство: США / Columbia Pictures
Жанр: Боевик, Триллер, Криминал
Перевод: Дублированный (Чистый звук), Любительский одноголосый закадровый
Субтитры: Вшитые отключаемые
Язык субтитров: Английский
Дата мировой премьеры: 7 сентября 2014
Дата российской премьеры: 25 сентября 2014, «WDSSPR»
Дата выхода DVD релиза: 22 января 2015, «CP Дистрибуция»
Режиссер: Антуан Фукуа
Продюсер: Тодд Блэк, Джейсон Блюменталь, Тони Элдридж
Актеры: Дензел Вашингтон, Мартон Чокаш, Клои Грэйс Моретц, Дэвид Харбор, Хейли Беннетт, Билл Пуллман, Мелисса Лео, Дэвид Мюнье, Джонни Скуртис, Алекс Видов
Описание фильма:
Роберт МакКолл — бывший спецназовец. После увольнения со службы он собирается начать нормальную мирную жизнь, дав себе обещание больше никогда не брать в руки оружия. Но в один прекрасный момент он встречает молодую девушку, зарабатывающую на жизнь проституцией, которую на его глазах избивают бандиты и увозят в неизвестном направлении. Тогда он решает отыскать ее, после чего вступает в неравную схватку с русской мафией и продажными агентами ЦРУ. Ради справедливости он готов нарушить собственное обещание и применить оружие против людей, которые просто не заслуживают жить в этом мире…

Продолжительность: 02:12:02
Качество видео: BDRemux
Видеокодек: MPEG-4 AVC/H.264
Битрейт видео: ~22852 kbps
Размер кадра: 1920 х 1080
Аудио 1: Русский, AC3 2.0, 192 kbps, 48 kHz (DUB, Line)
Аудио 2: Русский, DTS 5.1, 1510 kbps, 48 kHz (VO, Д.Есарев (нецензурный)
Аудио 3: Русский, DTS 5.1, 1510 kbps, 48 kHz (VO, Д.Есарев (цензурный)
Аудио 4: Английский, DTS 5.1, 1509 kbps, 48 kHz (Original)
Аудио 5: Английский, AC3 5.1, 640 kbps, 48 kHz (Descriptive)
Сэмпл: Скачать

MediaInfo:

Общее
Уникальный идентификатор : 220975698039339060986256327439463859890 (0xA63E5F12FE995C6C96271841A715C6B2)
Полное имя : D:\Films\The.Equalizer.2014.BDRemux.1080p.mkv
Формат : Matroska
Версия формата : Version 2
Размер файла : 26,0 Гбайт
Продолжительность : 2 ч. 12 м.
Режим общего битрейта : Переменный
Общий поток : 28,2 Мбит/сек
Название фильма : Equalizer, The
Дата кодирования : UTC 2014-12-14 15:26:30
Программа кодирования : mkvmerge v5.2.0 ('I can't explain') built on Dec 18 2011 18:12:03
Библиотека кодирования : libebml v1.2.3 + libmatroska v1.3.0
Видео
Идентификатор : 1
Формат : AVC
Формат/Информация : Advanced Video Codec
Профиль формата : High@L4.1
Параметр CABAC формата : Да
Параметр ReFrames формата : 2 кадра
Параметр GOP формата : M=1, N=10
Идентификатор кодека : V_MPEG4/ISO/AVC
Продолжительность : 2 ч. 12 м.
Вид битрейта : Переменный
Битрейт : 22,3 Мбит/сек
Ширина : 1920 пикселей
Высота : 1080 пикселей
Соотношение сторон : 16:9
Режим частоты кадров : Постоянный
Частота кадров : 23,976 кадра/сек
Цветовое пространство : YUV
Субдискретизация насыщенности : 4:2:0
Битовая глубина : 8 бит
Тип развёртки : Прогрессивная
Бит/(Пиксели*Кадры) : 0.448
Размер потока : 20,6 Гбайт (79%)
Язык : English
Default : Да
Forced : Нет
Аудио #1
Идентификатор : 2
Формат : AC-3
Формат/Информация : Audio Coding 3
Расширение режима : CM (complete main)
Параметр Endianness формата : Big
Идентификатор кодека : A_AC3
Продолжительность : 2 ч. 12 м.
Вид битрейта : Постоянный
Битрейт : 192 Кбит/сек
Каналы : 2 канала
Расположение каналов : Front: L R
Частота : 48,0 КГц
Битовая глубина : 16 бит
Метод сжатия : С потерями
Размер потока : 181 Мбайт (1%)
Заголовок : DUB, Line
Язык : Russian
Default : Да
Forced : Нет
Аудио #2
Идентификатор : 3
Формат : DTS
Формат/Информация : Digital Theater Systems
Режим : 16
Параметр Endianness формата : Big
Идентификатор кодека : A_DTS
Продолжительность : 2 ч. 12 м.
Вид битрейта : Постоянный
Битрейт : 1510 Кбит/сек
Каналы : 6 каналов
Расположение каналов : Front: L C R, Side: L R, LFE
Частота : 48,0 КГц
Битовая глубина : 24 бит
Метод сжатия : С потерями
Размер потока : 1,39 Гбайт (5%)
Заголовок : Есарев (ненормативный)
Язык : Russian
Default : Нет
Forced : Нет
Аудио #3
Идентификатор : 4
Формат : DTS
Формат/Информация : Digital Theater Systems
Режим : 16
Параметр Endianness формата : Big
Идентификатор кодека : A_DTS
Продолжительность : 2 ч. 12 м.
Вид битрейта : Постоянный
Битрейт : 1510 Кбит/сек
Каналы : 6 каналов
Расположение каналов : Front: L C R, Side: L R, LFE
Частота : 48,0 КГц
Битовая глубина : 24 бит
Метод сжатия : С потерями
Размер потока : 1,39 Гбайт (5%)
Заголовок : Есарев (цензурный)
Язык : Russian
Default : Нет
Forced : Нет
Аудио #4
Идентификатор : 5
Формат : DTS
Формат/Информация : Digital Theater Systems
Режим : 16
Параметр Endianness формата : Big
Идентификатор кодека : A_DTS
Продолжительность : 2 ч. 12 м.
Вид битрейта : Постоянный
Битрейт : 1509 Кбит/сек
Каналы : 6 каналов
Расположение каналов : Front: L C R, Side: L R, LFE
Частота : 48,0 КГц
Битовая глубина : 16 бит
Метод сжатия : С потерями
Размер потока : 1,39 Гбайт (5%)
Заголовок : Original
Язык : English
Default : Нет
Forced : Нет
Аудио #5
Идентификатор : 6
Формат : AC-3
Формат/Информация : Audio Coding 3
Расширение режима : CM (complete main)
Параметр Endianness формата : Big
Идентификатор кодека : A_AC3
Продолжительность : 2 ч. 12 м.
Вид битрейта : Постоянный
Битрейт : 640 Кбит/сек
Каналы : 6 каналов
Расположение каналов : Front: L C R, Side: L R, LFE
Частота : 48,0 КГц
Битовая глубина : 16 бит
Метод сжатия : С потерями
Задержка видео : 24 мс.
Размер потока : 604 Мбайт (2%)
Заголовок : Descriptive
Язык : English
Default : Нет
Forced : Нет
Текст #1
Идентификатор : 7
Формат : UTF-8
Идентификатор кодека : S_TEXT/UTF8
Идентификатор кодека/Информация : UTF-8 Plain Text
Заголовок : Forced
Язык : English
Default : Нет
Forced : Нет
Текст #2
Идентификатор : 8
Формат : UTF-8
Идентификатор кодека : S_TEXT/UTF8
Идентификатор кодека/Информация : UTF-8 Plain Text
Заголовок : SDH
Язык : English
Default : Нет
Forced : Нет
Меню
00:00:00.000 : en:Chapter 01
00:06:49.659 : en:Chapter 02
00:13:03.574 : en:Chapter 03
00:20:55.462 : en:Chapter 04
00:25:48.755 : en:Chapter 05
00:35:26.791 : en:Chapter 06
00:46:31.955 : en:Chapter 07
00:55:43.923 : en:Chapter 08
01:03:59.043 : en:Chapter 09
01:13:53.053 : en:Chapter 10
01:20:58.436 : en:Chapter 11
01:31:09.338 : en:Chapter 12
01:38:37.620 : en:Chapter 13
01:47:29.276 : en:Chapter 14
01:55:38.222 : en:Chapter 15
02:00:01.235 : en:Chapter 16

Avdump:

File: D:\Films\The.Equalizer.2014.BDRemux.1080p.mkv
Duration: 02:12:03 (7922.97)
Track #1: video
lang: Unknown (1)
codc: V_MPEG4/ISO/AVC -> H264/AVC (22)
reso: 1920x1080 -> 16:9
fram: 23.976 fps
rate: 22852 kbps (22851.9)
dura: 02:12:03 (7922.87)
size: 21.08 GB (22631583270)
Track #2: audio (DUB, Line)
lang: rus -> Russian (15)
codc: A_AC3 -> AC3 (2)
chan: 2 -> Stereo
samp: 48000 Hz
rate: 192 kbps (192.04)
dura: 02:12:03 (7922.82)
size: 181.38 MB (190189777)
Track #3: audio (???????????? (??????????????????????????))
lang: rus -> Russian (15)
codc: A_DTS -> DTS (13)
chan: 6 -> 5.1 Surround
samp: 48000 Hz
rate: 1510 kbps (1509.85)
dura: 02:12:03 (7922.89)
size: 1.39 GB (1495301691)
Track #4: audio (???????????? (??????????????????))
lang: rus -> Russian (15)
codc: A_DTS -> DTS (13)
chan: 6 -> 5.1 Surround
samp: 48000 Hz
rate: 1510 kbps (1509.85)
dura: 02:12:03 (7922.89)
size: 1.39 GB (1495301698)
Track #5: audio (Original)
lang: Unknown (1)
codc: A_DTS -> DTS (13)
chan: 6 -> 5.1 Surround
samp: 48000 Hz
rate: 1509 kbps (1509.10)
dura: 02:12:03 (7922.89)
size: 1.39 GB (1494558932)
Track #6: audio (Descriptive)
lang: Unknown (1)
codc: A_AC3 -> AC3 (2)
chan: 6 -> 5.1 Surround
samp: 48000 Hz
rate: 640 kbps (640.05)
dura: 02:12:03 (7922.78)
size: 604.51 MB (633875454)
Track #7: subtitles (Forced)
lang: Unknown (1)
type: S_TEXT/UTF8 -> SRT (3)
size: 1.10 KB (1130)
Track #8: subtitles (SDH)
lang: Unknown (1)
type: S_TEXT/UTF8 -> SRT (3)
size: 49.56 KB (50747)
Sizes: (check sanity)
disk: 26.03 GB (27945552016)
trac: 6.02 GB (6466026219) [based on track size]
bitr: 26.02 GB (27940810663) [based on bitrate]
tdif: 20.00 GB (21479525797) 76.86%
bdif: 4.52 MB (4741352) 0.01%
-Скриншоты: -Время раздачи: С 8:00 до 22:00 до 5 скачавших

[Цитировать]



Показать сообщения:    

Текущее время: 02-Дек 21:07

Часовой пояс: UTC + 3


Вы не можете начинать темы
Вы не можете отвечать на сообщения
Вы не можете редактировать свои сообщения
Вы не можете удалять свои сообщения
Вы не можете голосовать в опросах
Вы не можете прикреплять файлы к сообщениям
Вы не можете скачивать файлы

!ВНИМАНИЕ!
Сайт не предоставляет электронные версии произведений, а занимается лишь коллекционированием и каталогизацией ссылок, присылаемых и публикуемых на форуме нашими читателями. Если вы являетесь правообладателем какого-либо представленного материала и не желаете, чтобы ссылка на него находилась в нашем каталоге, свяжитесь с нами, и мы незамедлительно удалим ее. Файлы для обмена на трекере предоставлены пользователями сайта, и администрация не несет ответственности за их содержание. Просьба не заливать файлы, защищенные авторскими правами, а также файлы нелегального содержания!