[ Сегодня идет свободное скачивание без начисления Download ]


Статистика раздачи
Нет
 
   
 
Top  
 
 
-Геракл / Hercules (2014) BDRip [1080p] 3D [Вертикальная анаморфная стереопара]- Год выпуска: 2014
Производство: США, Flynn Picture Company, Metro-Goldwyn-Mayer (MGM), Paramount Pictures, Radical Studios
Жанр: Боевик, Приключения, Фэнтези
Описание фильма:
Более тысячи лет назад измученная душа скиталась по Земле, полубог, получеловек — Геракл — могучий сын царя богов Зевса, совершив все 12 подвигов, потерял семью и теперь находит утешение только в кровавых битвах. За эти годы он собирает вокруг себя шестерых таких же потерянных воинов, единственным смыслом жизни для которых стали сражения и присутствие смертельной опасности. Эти мужчины и женщина никогда не задают вопрос, где, почему или с кем они идут сражаться; только, сколько им заплатят. Зная это, фракийский царь Котис нанимает этих воинов, чтобы они обучили его солдат и сделали из них самую сильную и великую армию всех времен.
Режиссер: Бретт Рэтнер
Продюсер: Бо Флинн, Бэрри Ливайн, Бретт Рэтнер
Актеры: Дуэйн Джонсон, Иэн МакШейн, Джон Хёрт, Руфус Сьюэлл, Аксель Хенни, Ингрид Больсё Бердаль, Рис Ричи, Джозеф Файнс, Тобиас Зантельман, Питер Муллан
Перевод: Дублированный (Лицензия)
Субтитры: Вшитые отключаемые
Язык субтитров: Русские (Forced, Full), английские (Full, SDH)

Дата мировой премьеры: 23 июля 2014
Дата российской премьеры: 24 июля 2014, «Централ Партнершип»
Дата выхода DVD / Blu-Ray релиза: 1 декабря 2014, «Новый Диск»
Продолжительность: 01:38:04
Качество видео: BDRip [1080p] (Ash61)
Видеокодек: MPEG-4 AVC/H.264
Битрейт видео: ~10996 kbps
Размер кадра: 1920x800
Аудио #1: Русский: AC-3 / 5.1 / 48 kHz / 640 kbps
Аудио #2: Английский: DTS / 5.1 / 48 kHz / 1510 kbps
Сэмпл: Скачать

MediaInfo:

Общее
Уникальный идентификатор : 231886455614669110019411782610883384861 (0xAE73B4F48E0C753E93CEBEEB588F161D)
Полное имя : D:\Фильмы 3D\Hercules.2014.3D.BDRip.1080p.HalfOU.mkv
Формат : Matroska
Версия формата : Version 4 / Version 2
Размер файла : 9,01 Гбайт
Продолжительность : 1 ч. 38 м.
Общий поток : 13,1 Мбит/сек
Дата кодирования : UTC 2014-12-04 20:36:23
Программа кодирования : mkvmerge v7.2.0 ('On Every Street') 64bit built on Sep 13 2014 15:52:10
Библиотека кодирования : libebml v1.3.0 + libmatroska v1.4.1
DURATION : 01:38:04.640000000
NUMBER_OF_FRAMES : 551685
NUMBER_OF_BYTES : 1110541905
_STATISTICS_WRITING_APP : mkvmerge v7.2.0 ('On Every Street') 64bit built on Sep 13 2014 15:52:10
_STATISTICS_WRITING_DATE_UTC : 2014-12-04 20:36:23
_STATISTICS_TAGS : BPS DURATION NUMBER_OF_FRAMES NUMBER_OF_BYTES
Attachment : Yes
Видео
Идентификатор : 1
Формат : AVC
Формат/Информация : Advanced Video Codec
Профиль формата : High@L4.1
Параметр CABAC формата : Да
Параметр ReFrames формата : 4 кадра
Идентификатор кодека : V_MPEG4/ISO/AVC
Продолжительность : 1 ч. 38 м.
Битрейт : 10,7 Мбит/сек
Ширина : 1920 пикселей
Высота : 1080 пикселей
Соотношение сторон : 16:9
Режим частоты кадров : Постоянный
Частота кадров : 23,976 кадра/сек
Цветовое пространство : YUV
Субдискретизация насыщенности : 4:2:0
Битовая глубина : 8 бит
Тип развёртки : Прогрессивная
Бит/(Пиксели*Кадры) : 0.216
Размер потока : 7,36 Гбайт (82%)
Библиотека кодирования : x264 core 138 r2358 9e941d1
Настройки программы : cabac=1 / ref=4 / deblock=1:-3:-3 / analyse=0x3:0x113 / me=umh / subme=10 / psy=1 / psy_rd=1.00:0.15 / mixed_ref=1 / me_range=32 / chroma_me=1 / trellis=2 / 8x8dct=1 / cqm=0 / deadzone=21,11 / fast_pskip=1 / chroma_qp_offset=-3 / threads=12 / lookahead_threads=3 / sliced_threads=0 / nr=0 / decimate=1 / interlaced=0 / bluray_compat=0 / constrained_intra=0 / bframes=11 / b_pyramid=2 / b_adapt=2 / b_bias=0 / direct=3 / weightb=1 / open_gop=0 / weightp=2 / keyint=250 / keyint_min=23 / scenecut=40 / intra_refresh=0 / rc_lookahead=60 / rc=crf / mbtree=1 / crf=17.0 / qcomp=0.70 / qpmin=0 / qpmax=69 / qpstep=4 / vbv_maxrate=40000 / vbv_bufsize=30000 / crf_max=0.0 / nal_hrd=none / frame-packing=4 / ip_ratio=1.40 / aq=1:0.70
Язык : English
Default : Да
Forced : Нет
DURATION : 01:38:04.754000000
NUMBER_OF_FRAMES : 141093
NUMBER_OF_BYTES : 8088258959
_STATISTICS_WRITING_APP : mkvmerge v7.2.0 ('On Every Street') 64bit built on Sep 13 2014 15:52:10
_STATISTICS_WRITING_DATE_UTC : 2014-12-04 20:36:23
_STATISTICS_TAGS : BPS DURATION NUMBER_OF_FRAMES NUMBER_OF_BYTES
Аудио #1
Идентификатор : 2
Формат : AC-3
Формат/Информация : Audio Coding 3
Расширение режима : CM (complete main)
Параметр Endianness формата : Big
Идентификатор кодека : A_AC3
Продолжительность : 1 ч. 38 м.
Вид битрейта : Постоянный
Битрейт : 640 Кбит/сек
Каналы : 6 каналов
Расположение каналов : Front: L C R, Side: L R, LFE
Частота : 48,0 КГц
Битовая глубина : 16 бит
Метод сжатия : С потерями
Размер потока : 449 Мбайт (5%)
Язык : Russian
Default : Да
Forced : Нет
Аудио #2
Идентификатор : 3
Формат : DTS
Формат/Информация : Digital Theater Systems
Режим : 16
Параметр Endianness формата : Big
Идентификатор кодека : A_DTS
Продолжительность : 1 ч. 38 м.
Вид битрейта : Постоянный
Битрейт : 1510 Кбит/сек
Каналы : 6 каналов
Расположение каналов : Front: L C R, Side: L R, LFE
Частота : 48,0 КГц
Битовая глубина : 24 бит
Метод сжатия : С потерями
Размер потока : 1,03 Гбайт (11%)
Язык : English
Default : Нет
Forced : Нет
Текст #1
Идентификатор : 4
Формат : UTF-8
Идентификатор кодека : S_TEXT/UTF8
Идентификатор кодека/Информация : UTF-8 Plain Text
Заголовок : Forced
Язык : Russian
Default : Да
Forced : Нет
Текст #2
Идентификатор : 5
Формат : UTF-8
Идентификатор кодека : S_TEXT/UTF8
Идентификатор кодека/Информация : UTF-8 Plain Text
Заголовок : Full
Язык : Russian
Default : Нет
Forced : Нет
Текст #3
Идентификатор : 6
Формат : UTF-8
Идентификатор кодека : S_TEXT/UTF8
Идентификатор кодека/Информация : UTF-8 Plain Text
Заголовок : Full
Язык : English
Default : Нет
Forced : Нет
Текст #4
Идентификатор : 7
Формат : UTF-8
Идентификатор кодека : S_TEXT/UTF8
Идентификатор кодека/Информация : UTF-8 Plain Text
Заголовок : SDH
Язык : English
Default : Нет
Forced : Нет
Меню
00:00:00.000 : :1
00:08:10.782 : :2
00:14:15.813 : :3
00:23:38.250 : :4
00:30:02.050 : :5
00:39:31.869 : :6
00:48:16.060 : :7
00:54:13.000 : :8
01:02:26.493 : :9
01:12:36.727 : :10
01:20:57.770 : :11
01:30:52.072 : :12

Avdump:

File: D:\Фильмы 3D\Hercules.2014.3D.BDRip.1080p.HalfOU.mkv
Duration: 01:38:05 (5884.75)
Track #1: video
lang: Unknown (1)
codc: V_MPEG4/ISO/AVC -> H264/AVC (22)
reso: 1920x1080 -> 16:9
fram: 23.976 fps
rate: 10996 kbps (10995.6)
dura: 01:38:05 (5884.71)
size: 7.53 GB (8088258959)
Track #2: audio
lang: rus -> Russian (15)
codc: A_AC3 -> AC3 (2)
chan: 6 -> 5.1 Surround
samp: 48000 Hz
rate: 640 kbps (640.05)
dura: 01:38:05 (5884.51)
size: 448.99 MB (470796351)
Track #3: audio
lang: Unknown (1)
codc: A_DTS -> DTS (13)
chan: 6 -> 5.1 Surround
samp: 48000 Hz
rate: 1510 kbps (1509.86)
dura: 01:38:05 (5884.59)
size: 1.03 GB (1110613300)
Track #4: subtitles (Forced)
lang: rus -> Russian (15)
type: S_TEXT/UTF8 -> SRT (3)
size: 361.00 B (361)
Track #5: subtitles (Full)
lang: rus -> Russian (15)
type: S_TEXT/UTF8 -> SRT (3)
size: 43.25 KB (44286)
Track #6: subtitles (Full)
lang: Unknown (1)
type: S_TEXT/UTF8 -> SRT (3)
size: 28.16 KB (28833)
Track #7: subtitles (SDH)
lang: Unknown (1)
type: S_TEXT/UTF8 -> SRT (3)
size: 31.58 KB (32335)
Sizes: (check sanity)
disk: 9.01 GB (9672251883)
atts: 418.96 KB (429018)
trac: 5.01 GB (5374807129) [based on track size]
bitr: 9.01 GB (9669707327) [based on bitrate]
tdif: 4.00 GB (4297015736) 44.42%
bdif: 2.02 MB (2115537) 0.02%

Знаете ли вы, что...:

• Фильм основан на графическом романе «Hercules: The Thracian Wars» (2008).
• Несмотря на то, что на момент начала съемок Дуэйн Джонсон только оправился после операции, он настоял на том, что желает сам сниматься в сценах сражений, не прибегая к помощи дублеров.
• Каждый съемочный день уходило по 4 часа, чтобы нанести весь необходимый грим на Дуэйна Джонсона.
• Чтобы набрать необходимую для своей роли форму Дуэйн Джонсон тренировался на протяжении восьми месяцев.
• Дуэйн Джонсон рассказал, что его борода была сделана из шерсти яка.
• Специально для своей роли Ингрид Больсё Бердаль несколько месяцев обучалась стрельбе из лука у Стивена Ральфса.
• Съемки фильма проходили в Будапеште (Венгрия). Были задействованы съемочные площадки Origio Film Studios.
• Лошадей, которых использовали на съемках фильма, тщательно тренировали на протяжении многих месяцев, чтобы они падали во время боя, а также тащили колесницу управляемую Гераклом и его соратниками.
• Для того чтобы научиться удерживать равновесие при вождении колесницы, актеры ежедневно тренировались на протяжении 6 недель.
Скриншоты: Время раздачи: 24/7
(до 5 скачавших)

Геракл на NoNaMe Club

[Цитировать]



Показать сообщения:    

Текущее время: 28-Мар 10:24

Часовой пояс: UTC + 6


Вы не можете начинать темы
Вы не можете отвечать на сообщения
Вы не можете редактировать свои сообщения
Вы не можете удалять свои сообщения
Вы не можете голосовать в опросах
Вы не можете прикреплять файлы к сообщениям
Вы не можете скачивать файлы

!ВНИМАНИЕ!
Сайт не предоставляет электронные версии произведений, а занимается лишь коллекционированием и каталогизацией ссылок, присылаемых и публикуемых на форуме нашими читателями. Если вы являетесь правообладателем какого-либо представленного материала и не желаете, чтобы ссылка на него находилась в нашем каталоге, свяжитесь с нами, и мы незамедлительно удалим ее. Файлы для обмена на трекере предоставлены пользователями сайта, и администрация не несет ответственности за их содержание. Просьба не заливать файлы, защищенные авторскими правами, а также файлы нелегального содержания!