[ Сегодня идет свободное скачивание без начисления Download ]


Статистика раздачи
Нет
 
   
 
Top  
 
 
-Ограбление по-американски / American Heist (2014) WEB-DL [H.264/720p-LQ] [AVO]- Производство: США, Россия
Жанр: Триллер, Криминал, Драма
Режиссер: Сарик Андреасян
Актеры: Эдриен Броди, Хэйден Кристенсен, Джорданна Брюстер
Описание фильма:
У Джеймса темное прошлое, но сейчас он из всех сил пытается изменить свою жизнь — встречается с красивой девушкой, устроился работать автомехаником, мечтает о собственном бизнесе. Тем временем, его старший брат Френки, отсидевший десять лет в тюрьме, выходит на свободу. Френки пытается наладить отношения, но Джеймс не может простить брата за то, что много лет назад он втянул его в криминал, из-за чего Джеймс отсидел шестнадцать месяцев.
Однако попытки Джеймса начать новую жизнь не складываются: из-за тюремного прошлого он не может рассчитывать на хорошую работу и получает отказы в кредитовании своего бизнеса. Видя это, Френки предлагает Джеймсу «провести небольшое дельце». Он клянется, что это в последний раз и после ограбления банка в Новом Орлеане у них будут деньги, и они вернут свою жизнь, которую когда-то потеряли. В результате «небольшое дельце» станет одним из самых кровавых и драматических налетов в истории Америки…
Перевод: Одноголосый закадровый, авторский
Озвучка / Автор перевода: Алексей Яковлев
Субтитры: Отсутствуют

Дата мировой премьеры: 11.09.2014
Дата российской премьеры: 22.01.2015
Продолжительность: 01:30:53
Качество видео: WEB-DL [H.264/720p-LQ]
Видео: AVC, [email protected], 25.000 fps, 3 981 Kbps (0.312 bit/pixel)
Аудио: AC-3, 48.0 KHz, 2 ch, 192 Kbps, CBR
Сэмпл: Скачать

MediaInfo:

Формат : Matroska
Версия формата : Version 2
Размер файла : 2,70 Гбайт
Продолжительность : 1 ч. 30 м.
Общий поток : 4257 Кбит/сек
Дата кодирования : UTC 2015-01-23 10:30:44
Программа кодирования : mkvmerge v3.0.0 ('Hang up your Hang-Ups') built on Dec 12 2009 15:20:35
Библиотека кодирования : libebml v0.7.9 + libmatroska v0.8.1
Видео
Идентификатор : 1
Формат : AVC
Формат/Информация : Advanced Video Codec
Профиль формата : [email protected]
Параметр CABAC формата : Нет
Параметр ReFrames формата : 2 кадра
Идентификатор кодека : V_MPEG4/ISO/AVC
Продолжительность : 1 ч. 30 м.
Битрейт : 3981 Кбит/сек
Ширина : 960 пикселей
Высота : 532 пикселя
Соотношение сторон : 2,40:1
Режим частоты кадров : Постоянный
Частота кадров : 25,000 кадров/сек
Цветовое пространство : YUV
Субдискретизация насыщенности : 4:2:0
Битовая глубина : 8 бит
Тип развёртки : Прогрессивная
Бит/(Пиксели*Кадры) : 0.312
Размер потока : 2,53 Гбайт (94%)
Язык : English
Default : Нет
Forced : Нет
Основные цвета : BT.709
Характеристики трансфера : BT.709
Коэффициенты матрицы : BT.709
Аудио
Идентификатор : 2
Формат : AC-3
Формат/Информация : Audio Coding 3
Расширение режима : CM (complete main)
Параметр Endianness формата : Big
Идентификатор кодека : A_AC3
Продолжительность : 1 ч. 30 м.
Вид битрейта : Постоянный
Битрейт : 192 Кбит/сек
Каналы : 2 канала
Расположение каналов : Front: L R
Частота : 48,0 КГц
Битовая глубина : 16 бит
Метод сжатия : С потерями
Размер потока : 125 Мбайт (5%)
Default : Да
Forced : Нет
Скриншоты:
Время раздачи: 24/7 (круглосуточно)

[Цитировать]

Топик был перенесен из форума Новинки кинопроката в форум Триллер
Henkok



Показать сообщения:    

Текущее время: 06-Дек 20:59

Часовой пояс: UTC + 3


Вы не можете начинать темы
Вы не можете отвечать на сообщения
Вы не можете редактировать свои сообщения
Вы не можете удалять свои сообщения
Вы не можете голосовать в опросах
Вы не можете прикреплять файлы к сообщениям
Вы не можете скачивать файлы

!ВНИМАНИЕ!
Сайт не предоставляет электронные версии произведений, а занимается лишь коллекционированием и каталогизацией ссылок, присылаемых и публикуемых на форуме нашими читателями. Если вы являетесь правообладателем какого-либо представленного материала и не желаете, чтобы ссылка на него находилась в нашем каталоге, свяжитесь с нами, и мы незамедлительно удалим ее. Файлы для обмена на трекере предоставлены пользователями сайта, и администрация не несет ответственности за их содержание. Просьба не заливать файлы, защищенные авторскими правами, а также файлы нелегального содержания!