[ Today is free to download without increasing Download ]

DL-List and Torrent activity
Complete: [ 1 ]
Мальчик с пальчик
Жанр: детский, сказка
Год выпуска: 1977
Продолжительность: 00:17:05
Режиссёр: Александр Трусов, Роман Давыдов
Описание: У живущих одиноко стариков нет внуков. Однажды им на помощь приходит мальчик с пальчик и становится их внуком, который помогает им справляться с различными делами. Помогая в поле батюшке он управляет лошадью, но он такой маленький, что и не разглядеть его если не приглядываться. Издали кажется, что лошадь идёт сама по себе. Увидев такое помещик решил купить чудную лошадь, которая ещё и говорит, решив заработать на этом, но был проучен за собственную жадность мальчиком с пальчик.
Доп. информация: По мотивам русской народной сказки

Релиз спутникового канала: "Карусель"
Качество видео: DVB
Формат видео: MPEG-PS
Видео: MPEG2 Video, 720x576, 25 fps, 3800 kbps
Аудио: MPEG Audio, 2 сh, 48 kHz, 192 kbps


Complete name : O:\Мальчик с пальчик. (1977)_DVB by SLuMeP.mpg
Format : MPEG-PS
File size : 498 MiB
Duration : 17mn 5s
Overall bit rate : 4 073 Kbps
Writing library : (c) 1998-2010 Womble Multimedia, Inc. / MPEG Video Wizard DVD (01/2010) / Apr 20 2010
ID : 224 (0xE0)
Format : MPEG Video
Format version : Version 2
Format profile : Main@Main
Format settings, BVOP : Yes
Format settings, Matrix : Default
Duration : 17mn 5s
Bit rate mode : Variable
Bit rate : 3 800 Kbps
Nominal bit rate : 5 000 Kbps
Width : 720 pixels
Height : 576 pixels
Display aspect ratio : 4:3
Frame rate : 25.000 fps
Standard : PAL
Color space : YUV
Chroma subsampling : 4:2:0
Bit depth : 8 bits
Scan type : Interlaced
Scan order : Top Field First
Bits/(Pixel*Frame) : 0.367
Stream size : 465 MiB (93%)
Writing library : (c) 1998-2010 Womble Multimedia, Inc. / MPEG Video Wizard DVD (01/2010) / Apr 20 2010
ID : 192 (0xC0)
Format : MPEG Audio
Format version : Version 1
Format profile : Layer 2
Duration : 17mn 5s
Bit rate mode : Constant
Bit rate : 192 Kbps
Channel(s) : 2 channels
Sampling rate : 48.0 KHz
Video delay : -80ms
Stream size : 23.5 MiB (5%)



Display posts:    

Current time is: 29-Oct 00:40

All times are UTC + 3

You cannot post new topics in this forum
You cannot reply to topics in this forum
You cannot edit your posts in this forum
You cannot delete your posts in this forum
You cannot vote in polls in this forum
You cannot attach files in this forum
You cannot download files in this forum

The site does not give electronic versions of products, and is engaged only in a collecting and cataloguing of the references sent and published at a forum by our readers. If you are the legal owner of any submitted material and do not wish that the reference to it was in our catalogue, contact us and we shall immediately remove her. Files for an exchange on tracker are given by users of a site, and the administration does not bear the responsibility for their maintenance. The request to not fill in the files protected by copyrights, and also files of the illegal maintenance!