[ Today is free to download without increasing Download ]

DL-List and Torrent activity
Дима отправляется в путь- Страна: СССР / ТО "Экран"
Жанр: мультфильм
Продолжительность: 00:16:16
Год выпуска: 1978
Русские субтитры: нет-Режиссёр: Виталий Песков
Описание: О том, как пионер Дима выбирал профессию.--Качество: DVB
Формат: MPG
Видео: 720x576 (4:3), 25.000 fps, MPEG-2 Video, ~2853 Kbps, 0.275 bits/pixel
Аудио: 48.0 KHz, MPEG-1 Audio layer 2, 2 ch, 192 Kbps
Субтитры: отсутствуют

Подробные технические данные

GeneralComplete name                            : Дима отправляется в путь.1978.2x2.mpgFormat                                   : MPEG-PSFile size                                : 361 MiBDuration                                 : 16mn 16sOverall bit rate mode                    : VariableOverall bit rate                         : 3 107 Kbps
VideoID : 224 (0xE0)Format : MPEG VideoFormat version : Version 2Format profile : Main@MainFormat settings, BVOP : YesFormat settings, Matrix : CustomFormat settings, GOP : VariableDuration : 16mn 16sBit rate mode : VariableBit rate : 2 853 KbpsMaximum bit rate : 15.0 MbpsWidth : 720 pixelsHeight : 576 pixelsDisplay aspect ratio : 4:3Frame rate : 25.000 fpsStandard : PALColor space : YUVChroma subsampling : 4:2:0Bit depth : 8 bitsScan type : InterlacedScan order : Top Field FirstCompression mode : LossyBits/(Pixel*Frame) : 0.275Time code of first frame : 00:00:00:00Time code source : Group of pictures headerStream size : 332 MiB (92%)
AudioID : 192 (0xC0)Format : MPEG AudioFormat version : Version 1Format profile : Layer 2Duration : 16mn 16sBit rate mode : ConstantBit rate : 192 KbpsChannel(s) : 2 channelsSampling rate : 48.0 KHzCompression mode : LossyStream size : 22.3 MiB (6%)



Display posts:    

Current time is: 23-Oct 17:20

All times are UTC + 3

You cannot post new topics in this forum
You cannot reply to topics in this forum
You cannot edit your posts in this forum
You cannot delete your posts in this forum
You cannot vote in polls in this forum
You cannot attach files in this forum
You cannot download files in this forum

The site does not give electronic versions of products, and is engaged only in a collecting and cataloguing of the references sent and published at a forum by our readers. If you are the legal owner of any submitted material and do not wish that the reference to it was in our catalogue, contact us and we shall immediately remove her. Files for an exchange on tracker are given by users of a site, and the administration does not bear the responsibility for their maintenance. The request to not fill in the files protected by copyrights, and also files of the illegal maintenance!