[ Сегодня идет свободное скачивание без начисления Download ]


Статистика раздачи
Нет
 
   
 
Top  
 
 
Сказки старого пианино. Роберт Шуман. Письма- Страна: Россия
Жанр: мультфильм
Продолжительность: 00:10:33
Год выпуска: 2009
Русские субтитры: нет-Режиссёр: Ирина Марголина, Елена Петкевич
Описание: Анимационный фильм о великом немецком композиторе Роберте Шумане.--Качество: DVB
Формат: MPG
Видео: 704x576 (4:3), 25.000 fps, MPEG-2 Video, ~2743 Kbps, 0.271 bits/pixel
Аудио: 48.0 KHz, MPEG-1 Audio layer 2, 2 ch, 192 Kbps
Субтитры: отсутствуют

MedaInfo

GeneralComplete name                            : Сказки старого пианино. Роберт Шуман. Письма.mpgFormat                                   : MPEG-PSFile size                                : 226 MiBDuration                                 : 10mn 33sOverall bit rate mode                    : VariableOverall bit rate                         : 2 994 Kbps
VideoID : 224 (0xE0)Format : MPEG VideoFormat version : Version 2Format profile : [email protected] settings, BVOP : YesFormat settings, Matrix : CustomFormat settings, GOP : M=3, N=24Duration : 10mn 33sBit rate mode : VariableBit rate : 2 743 KbpsMaximum bit rate : 15.0 MbpsWidth : 704 pixelsHeight : 576 pixelsDisplay aspect ratio : 4:3Frame rate : 25.000 fpsStandard : PALColor space : YUVChroma subsampling : 4:2:0Bit depth : 8 bitsCompression mode : LossyBits/(Pixel*Frame) : 0.271Time code of first frame : 00:00:00:00Time code source : Group of pictures headerStream size : 207 MiB (92%)
AudioID : 192 (0xC0)Format : MPEG AudioFormat version : Version 1Format profile : Layer 2Duration : 10mn 33sBit rate mode : ConstantBit rate : 192 KbpsChannel(s) : 2 channelsSampling rate : 48.0 KHzCompression mode : LossyStream size : 14.5 MiB (6%)

[Цитировать]



Показать сообщения:    

Текущее время: 04-Дек 11:18

Часовой пояс: UTC + 3


Вы не можете начинать темы
Вы не можете отвечать на сообщения
Вы не можете редактировать свои сообщения
Вы не можете удалять свои сообщения
Вы не можете голосовать в опросах
Вы не можете прикреплять файлы к сообщениям
Вы не можете скачивать файлы

!ВНИМАНИЕ!
Сайт не предоставляет электронные версии произведений, а занимается лишь коллекционированием и каталогизацией ссылок, присылаемых и публикуемых на форуме нашими читателями. Если вы являетесь правообладателем какого-либо представленного материала и не желаете, чтобы ссылка на него находилась в нашем каталоге, свяжитесь с нами, и мы незамедлительно удалим ее. Файлы для обмена на трекере предоставлены пользователями сайта, и администрация не несет ответственности за их содержание. Просьба не заливать файлы, защищенные авторскими правами, а также файлы нелегального содержания!