[ Сегодня идет свободное скачивание без начисления Download ]


Статистика раздачи
Нет
 
   
 
Top  
 
 
Человек и его птица- Страна: СССР / ТО "Экран"
Жанр: мультфильм для взрослых
Продолжительность: 00:10:11
Год выпуска: 1975
Русские субтитры: нет-Режиссёр: Анатолий Солин
Описание: Об извечно нелегкой судьбе простого человека. Для взрослых--Качество: DVB
Формат: MPG
Видео: 720x576 (4:3), 25.000 fps, MPEG-2 Video, ~2736 Kbps, 0.264 bits/pixel
Аудио: 48.0 KHz, MPEG-1 Audio layer 2, 2 ch, 192 Kbps
Субтитры: отсутствуют

Подробные технические данные

GeneralComplete name                            : Человек и его птица (Анатолий Солин) 1975.2x2.mpgFormat                                   : MPEG-PSFile size                                : 218 MiBDuration                                 : 10mn 11sOverall bit rate mode                    : VariableOverall bit rate                         : 2 987 Kbps
VideoID : 224 (0xE0)Format : MPEG VideoFormat version : Version 2Format profile : Main@MainFormat settings, BVOP : YesFormat settings, Matrix : CustomFormat settings, GOP : VariableDuration : 10mn 11sBit rate mode : VariableBit rate : 2 736 KbpsMaximum bit rate : 15.0 MbpsWidth : 720 pixelsHeight : 576 pixelsDisplay aspect ratio : 4:3Frame rate : 25.000 fpsStandard : PALColor space : YUVChroma subsampling : 4:2:0Bit depth : 8 bitsScan type : InterlacedScan order : Top Field FirstCompression mode : LossyBits/(Pixel*Frame) : 0.264Time code of first frame : 00:00:00:00Time code source : Group of pictures headerStream size : 199 MiB (92%)
AudioID : 192 (0xC0)Format : MPEG AudioFormat version : Version 1Format profile : Layer 2Duration : 10mn 11sBit rate mode : ConstantBit rate : 192 KbpsChannel(s) : 2 channelsSampling rate : 48.0 KHzCompression mode : LossyStream size : 14.0 MiB (6%)

Скриншоты

[Цитировать]



Показать сообщения:    

Текущее время: 07-Дек 13:30

Часовой пояс: UTC + 3


Вы не можете начинать темы
Вы не можете отвечать на сообщения
Вы не можете редактировать свои сообщения
Вы не можете удалять свои сообщения
Вы не можете голосовать в опросах
Вы не можете прикреплять файлы к сообщениям
Вы не можете скачивать файлы

!ВНИМАНИЕ!
Сайт не предоставляет электронные версии произведений, а занимается лишь коллекционированием и каталогизацией ссылок, присылаемых и публикуемых на форуме нашими читателями. Если вы являетесь правообладателем какого-либо представленного материала и не желаете, чтобы ссылка на него находилась в нашем каталоге, свяжитесь с нами, и мы незамедлительно удалим ее. Файлы для обмена на трекере предоставлены пользователями сайта, и администрация не несет ответственности за их содержание. Просьба не заливать файлы, защищенные авторскими правами, а также файлы нелегального содержания!