[ Today is free to download without increasing Download ]

DL-List and Torrent activity
Человек и его птица- Страна: СССР / ТО "Экран"
Жанр: мультфильм для взрослых
Продолжительность: 00:10:11
Год выпуска: 1975
Русские субтитры: нет-Режиссёр: Анатолий Солин
Описание: Об извечно нелегкой судьбе простого человека. Для взрослых--Качество: DVB
Формат: MPG
Видео: 720x576 (4:3), 25.000 fps, MPEG-2 Video, ~2736 Kbps, 0.264 bits/pixel
Аудио: 48.0 KHz, MPEG-1 Audio layer 2, 2 ch, 192 Kbps
Субтитры: отсутствуют

Подробные технические данные

GeneralComplete name                            : Человек и его птица (Анатолий Солин) 1975.2x2.mpgFormat                                   : MPEG-PSFile size                                : 218 MiBDuration                                 : 10mn 11sOverall bit rate mode                    : VariableOverall bit rate                         : 2 987 Kbps
VideoID : 224 (0xE0)Format : MPEG VideoFormat version : Version 2Format profile : Main@MainFormat settings, BVOP : YesFormat settings, Matrix : CustomFormat settings, GOP : VariableDuration : 10mn 11sBit rate mode : VariableBit rate : 2 736 KbpsMaximum bit rate : 15.0 MbpsWidth : 720 pixelsHeight : 576 pixelsDisplay aspect ratio : 4:3Frame rate : 25.000 fpsStandard : PALColor space : YUVChroma subsampling : 4:2:0Bit depth : 8 bitsScan type : InterlacedScan order : Top Field FirstCompression mode : LossyBits/(Pixel*Frame) : 0.264Time code of first frame : 00:00:00:00Time code source : Group of pictures headerStream size : 199 MiB (92%)
AudioID : 192 (0xC0)Format : MPEG AudioFormat version : Version 1Format profile : Layer 2Duration : 10mn 11sBit rate mode : ConstantBit rate : 192 KbpsChannel(s) : 2 channelsSampling rate : 48.0 KHzCompression mode : LossyStream size : 14.0 MiB (6%)



Display posts:    

Current time is: 23-Oct 04:26

All times are UTC + 3

You cannot post new topics in this forum
You cannot reply to topics in this forum
You cannot edit your posts in this forum
You cannot delete your posts in this forum
You cannot vote in polls in this forum
You cannot attach files in this forum
You cannot download files in this forum

The site does not give electronic versions of products, and is engaged only in a collecting and cataloguing of the references sent and published at a forum by our readers. If you are the legal owner of any submitted material and do not wish that the reference to it was in our catalogue, contact us and we shall immediately remove her. Files for an exchange on tracker are given by users of a site, and the administration does not bear the responsibility for their maintenance. The request to not fill in the files protected by copyrights, and also files of the illegal maintenance!