[ Сегодня идет свободное скачивание без начисления Download ]


Статистика раздачи
Скачал: [ 1 ]
 
   
 
Top  
 
 
Остров ошибок-Страна: СССР
Жанр: мультфильм, семейный
Продолжительность: 00:25:06
Год выпуска: 1955
Русские субтитры: нет-Режиссёр: Валентина Брумберг, Зинаида Брумберг
Роли озвучивали: Серафима Бирман, Софья Гаррель, Галина Новожилова, Владимир Грибков, Вера Бендина, Лилия Гриценко, П. Брянский, Е. Морес, Ирина Гошева, Ольга Андровская.-Описание: Комедийно-фантастический фильм о двоечнике Коле Сорокине, который прогулял все лето, и совсем забыл про домашние задания. Все его плохие оценки превратились в черных лебедей и унесли на остров его же собственных ошибок. На острове он встречает... неправильно разделенных зайцев, невесомого слона и других животных. В итоге неправильное решение задач доставляет Коле много неприятностей. Эти испытания заставляют героя по-другому отнестись к своим обязанностям...--Качество: DVB
Формат: MPG
Видео: 720x576 (4:3) @ 786x576, 25.000 fps, AVC, ~4366 Kbps, 0.421 bits/pixel
Аудио: 48.0 KHz, MPEG-1 Audio layer 2, 2 ch, 192 Kbps
Субтитры: отсутствуют

Подробные технические данные

GeneralID                                       : 1 (0x1)Complete name                            : Остров ошибок.1955.Культура.tsFormat                                   : MPEG-TSFile size                                : 861 MiBDuration                                 : 25mn 6sOverall bit rate mode                    : VariableOverall bit rate                         : 4 797 Kbps
VideoID : 2271 (0x8DF)Menu ID : 1 (0x1)Format : AVCFormat/Info : Advanced Video CodecFormat profile : [email protected] settings, CABAC : YesFormat settings, ReFrames : 3 framesCodec ID : 27Duration : 25mn 6sBit rate : 4 366 KbpsWidth : 720 pixelsHeight : 576 pixelsDisplay aspect ratio : 4:3Frame rate : 25.000 fpsStandard : ComponentColor space : YUVChroma subsampling : 4:2:0Bit depth : 8 bitsScan type : ProgressiveBits/(Pixel*Frame) : 0.421Stream size : 784 MiB (91%)Color primaries : BT.601 PALTransfer characteristics : BT.470 System B, BT.470 System GMatrix coefficients : BT.601
AudioID : 2272 (0x8E0)Menu ID : 1 (0x1)Format : MPEG AudioFormat version : Version 1Format profile : Layer 2Codec ID : 3Duration : 25mn 6sBit rate mode : ConstantBit rate : 192 KbpsChannel(s) : 2 channelsSampling rate : 48.0 KHzCompression mode : LossyDelay relative to video : -40msStream size : 34.5 MiB (4%)Language : Russian

Скриншоты

[Цитировать]



Показать сообщения:    

Текущее время: 06-Дек 19:09

Часовой пояс: UTC + 3


Вы не можете начинать темы
Вы не можете отвечать на сообщения
Вы не можете редактировать свои сообщения
Вы не можете удалять свои сообщения
Вы не можете голосовать в опросах
Вы не можете прикреплять файлы к сообщениям
Вы не можете скачивать файлы

!ВНИМАНИЕ!
Сайт не предоставляет электронные версии произведений, а занимается лишь коллекционированием и каталогизацией ссылок, присылаемых и публикуемых на форуме нашими читателями. Если вы являетесь правообладателем какого-либо представленного материала и не желаете, чтобы ссылка на него находилась в нашем каталоге, свяжитесь с нами, и мы незамедлительно удалим ее. Файлы для обмена на трекере предоставлены пользователями сайта, и администрация не несет ответственности за их содержание. Просьба не заливать файлы, защищенные авторскими правами, а также файлы нелегального содержания!