[ Today is free to download without increasing Download ]

DL-List and Torrent activity
Complete: [ 1 ]
Остров ошибок-Страна: СССР
Жанр: мультфильм, семейный
Продолжительность: 00:25:06
Год выпуска: 1955
Русские субтитры: нет-Режиссёр: Валентина Брумберг, Зинаида Брумберг
Роли озвучивали: Серафима Бирман, Софья Гаррель, Галина Новожилова, Владимир Грибков, Вера Бендина, Лилия Гриценко, П. Брянский, Е. Морес, Ирина Гошева, Ольга Андровская.-Описание: Комедийно-фантастический фильм о двоечнике Коле Сорокине, который прогулял все лето, и совсем забыл про домашние задания. Все его плохие оценки превратились в черных лебедей и унесли на остров его же собственных ошибок. На острове он встречает... неправильно разделенных зайцев, невесомого слона и других животных. В итоге неправильное решение задач доставляет Коле много неприятностей. Эти испытания заставляют героя по-другому отнестись к своим обязанностям...--Качество: DVB
Формат: MPG
Видео: 720x576 (4:3) @ 786x576, 25.000 fps, AVC, ~4366 Kbps, 0.421 bits/pixel
Аудио: 48.0 KHz, MPEG-1 Audio layer 2, 2 ch, 192 Kbps
Субтитры: отсутствуют

Подробные технические данные

GeneralID                                       : 1 (0x1)Complete name                            : Остров ошибок.1955.Культура.tsFormat                                   : MPEG-TSFile size                                : 861 MiBDuration                                 : 25mn 6sOverall bit rate mode                    : VariableOverall bit rate                         : 4 797 Kbps
VideoID : 2271 (0x8DF)Menu ID : 1 (0x1)Format : AVCFormat/Info : Advanced Video CodecFormat profile : Main@L3.0Format settings, CABAC : YesFormat settings, ReFrames : 3 framesCodec ID : 27Duration : 25mn 6sBit rate : 4 366 KbpsWidth : 720 pixelsHeight : 576 pixelsDisplay aspect ratio : 4:3Frame rate : 25.000 fpsStandard : ComponentColor space : YUVChroma subsampling : 4:2:0Bit depth : 8 bitsScan type : ProgressiveBits/(Pixel*Frame) : 0.421Stream size : 784 MiB (91%)Color primaries : BT.601 PALTransfer characteristics : BT.470 System B, BT.470 System GMatrix coefficients : BT.601
AudioID : 2272 (0x8E0)Menu ID : 1 (0x1)Format : MPEG AudioFormat version : Version 1Format profile : Layer 2Codec ID : 3Duration : 25mn 6sBit rate mode : ConstantBit rate : 192 KbpsChannel(s) : 2 channelsSampling rate : 48.0 KHzCompression mode : LossyDelay relative to video : -40msStream size : 34.5 MiB (4%)Language : Russian



Display posts:    

Current time is: 27-Oct 06:03

All times are UTC + 3

You cannot post new topics in this forum
You cannot reply to topics in this forum
You cannot edit your posts in this forum
You cannot delete your posts in this forum
You cannot vote in polls in this forum
You cannot attach files in this forum
You cannot download files in this forum

The site does not give electronic versions of products, and is engaged only in a collecting and cataloguing of the references sent and published at a forum by our readers. If you are the legal owner of any submitted material and do not wish that the reference to it was in our catalogue, contact us and we shall immediately remove her. Files for an exchange on tracker are given by users of a site, and the administration does not bear the responsibility for their maintenance. The request to not fill in the files protected by copyrights, and also files of the illegal maintenance!