[ Сегодня идет свободное скачивание без начисления Download ]


Статистика раздачи
Нет
 
   
 
Top  
 
 
Мальчик и лягушонок
Жанр: рисованная анимация
Год выпуска: 1989
Продолжительность: 00:09:38
Режиссёр: Виктор Дудкин
Описание: Мультфильм представляет собой трагикомическую историю Лягушонка, извлечённого из болота сердобольным мальчиком и едва им не загубленного. Фильм говорит о необходимости осторожного, бережного вторжения человека в мир природы.
Доп. информация: По рассказу Н. Сладкова

Релиз спутникового канала: "Детский мир"
Качество видео: DVB
Формат видео: MPEG-PS
Видео: MPEG2 Video, 704x576, 25 fps, 2800 kbps
Аудио: MPEG Audio, 2 сh, 48 kHz, 192 kbps

MediaInfo

General
Complete name : O:\Мальчик и лягушонок. (1989)_DVB by SLuMeP.mpg
Format : MPEG-PS
File size : 152 MiB
Duration : 7mn 9s
Overall bit rate : 2 980 Kbps
Video
ID : 224 (0xE0)
Format : MPEG Video
Format version : Version 2
Format profile : Main@Main
Format settings, BVOP : Yes
Format settings, Matrix : Default
Duration : 7mn 9s
Bit rate mode : Variable
Bit rate : 2 729 Kbps
Nominal bit rate : 5 000 Kbps
Width : 704 pixels
Height : 576 pixels
Display aspect ratio : 4:3
Frame rate : 25.000 fps
Standard : PAL
Color space : YUV
Chroma subsampling : 4:2:0
Bit depth : 8 bits
Scan type : Interlaced
Scan order : Top Field First
Bits/(Pixel*Frame) : 0.269
Stream size : 140 MiB (92%)
Audio
ID : 192 (0xC0)
Format : MPEG Audio
Format version : Version 1
Format profile : Layer 2
Duration : 7mn 9s
Bit rate mode : Constant
Bit rate : 192 Kbps
Channel(s) : 2 channels
Sampling rate : 48.0 KHz
Stream size : 9.82 MiB (6%)

Скриншоты

[Цитировать]



Показать сообщения:    

Текущее время: 07-Дек 13:40

Часовой пояс: UTC + 3


Вы не можете начинать темы
Вы не можете отвечать на сообщения
Вы не можете редактировать свои сообщения
Вы не можете удалять свои сообщения
Вы не можете голосовать в опросах
Вы не можете прикреплять файлы к сообщениям
Вы не можете скачивать файлы

!ВНИМАНИЕ!
Сайт не предоставляет электронные версии произведений, а занимается лишь коллекционированием и каталогизацией ссылок, присылаемых и публикуемых на форуме нашими читателями. Если вы являетесь правообладателем какого-либо представленного материала и не желаете, чтобы ссылка на него находилась в нашем каталоге, свяжитесь с нами, и мы незамедлительно удалим ее. Файлы для обмена на трекере предоставлены пользователями сайта, и администрация не несет ответственности за их содержание. Просьба не заливать файлы, защищенные авторскими правами, а также файлы нелегального содержания!