[ Today is free to download without increasing Download ]

DL-List and Torrent activity
Похождения Чичикова: Ноздрёв
Жанр: Кукольная анимация
Год выпуска: 1974
Продолжительность: 00:15:35
Режиссёр: Борис Степанцев
Описание: По роману Н.В. Гоголя «Мёртвые души».
1. Чичиков в гостях у помещика Ноздрёва; хозяин со взрывным темпераментом, лукав и хитёр.
Доп. информация:

Релиз спутникового канала: "Детский мир"
Качество видео: DVB
Формат видео: MPEG-PS
Видео: MPEG2 Video, 704x576, 25 fps, 1900 kbps
Аудио: MPEG Audio, 2 сh, 48 kHz, 192 kbps


Complete name : O:\Похождения Чичикова. Ноздрев. (1974)_DVB by SLuMeP.mpg
Format : MPEG-PS
File size : 235 MiB
Duration : 15mn 35s
Overall bit rate : 2 102 Kbps
ID : 224 (0xE0)
Format : MPEG Video
Format version : Version 2
Format profile : Main@Main
Format settings, BVOP : No
Format settings, Matrix : Default
Format settings, GOP : M=1, N=39
Duration : 15mn 35s
Bit rate mode : Variable
Bit rate : 1 868 Kbps
Nominal bit rate : 5 000 Kbps
Width : 704 pixels
Height : 576 pixels
Display aspect ratio : 4:3
Frame rate : 25.000 fps
Standard : PAL
Color space : YUV
Chroma subsampling : 4:2:0
Bit depth : 8 bits
Scan type : Interlaced
Scan order : Top Field First
Bits/(Pixel*Frame) : 0.184
Stream size : 208 MiB (89%)
ID : 192 (0xC0)
Format : MPEG Audio
Format version : Version 1
Format profile : Layer 2
Duration : 15mn 35s
Bit rate mode : Constant
Bit rate : 192 Kbps
Channel(s) : 2 channels
Sampling rate : 48.0 KHz
Stream size : 21.4 MiB (9%)



Display posts:    

Current time is: 28-Oct 05:35

All times are UTC + 3

You cannot post new topics in this forum
You cannot reply to topics in this forum
You cannot edit your posts in this forum
You cannot delete your posts in this forum
You cannot vote in polls in this forum
You cannot attach files in this forum
You cannot download files in this forum

The site does not give electronic versions of products, and is engaged only in a collecting and cataloguing of the references sent and published at a forum by our readers. If you are the legal owner of any submitted material and do not wish that the reference to it was in our catalogue, contact us and we shall immediately remove her. Files for an exchange on tracker are given by users of a site, and the administration does not bear the responsibility for their maintenance. The request to not fill in the files protected by copyrights, and also files of the illegal maintenance!