[ Сегодня идет свободное скачивание без начисления Download ]


Статистика раздачи
Нет
 
   
 
Top  
 
 
Солнышко и снежные человечки
Страна: СССР
Жанр: Рисованный мультфильм
Продолжительность: 00:09:57
Год выпуска: 1985
Русские субтитры: нет
Режиссёр: Владимир Гончаров
Роли озвучивали: В. Коршун, Л. Томашевская, Л. Игнатенко, Л. Логийко, Е. Клименко, Ю. Врублёвский
Описание: Мультфильм о том, как жили в зимнем лесу четыре снежных человечка с морковками вместо носа. Иногда они смотрели, как в доме спят дети. Своим папой считали Мороза. Жизнь им омрачала ворона, говорившая, что придет солнце и все они растают. Снеговики пошли к солнышку просить, чтобы оно не приходило...
Доп. информация: «Киевнаучфильм»
Автор сценария: Н. Лень
Текст песен: Е. Череповецкого, Н. Слепаковой
Художник-постановщик: Н. Гузь
Композитор: В. Быстряков
Оператор: А. Гаврилов, И. Погон
Художники-мультипликаторы: С. Кушнеров, М. Титов, Н. Чурилова, Н. Устенко, Л. Ткачикова
Ассистенты: Е. Дёмкина, А. Марченко, В. Езерский
Монтаж: С. Васильевой
Редактор: Н. Гузеева
Директор картины: И. Мазепа
Релиз группы:
Исходник для рипа любезно представлен SLuMeP
Качество: SATRip
Формат: AVI
Видео: 704x528 (1.33:1), 25 fps, XviD build 65 ~2100 kbps avg, 0.23 bit/pixel
Аудио: 48 kHz, AC3 Dolby Digital, 1/0 (C) ch, ~192.00 kbps avg
Субтитры: нет

Подробные технические данные

Format                                   : AVIFormat/Info                              : Audio Video InterleaveFile size                                : 164 MiBDuration                                 : 9mn 57sOverall bit rate                         : 2 303 KbpsWriting application                      : VirtualDubModRus 1.5.10.2 (build 2542/release)Copyright                                : Rutracker.orgComment                                  : SATRip by dvdss
VideoID : 0Format : MPEG-4 VisualFormat profile : Advanced Simple@L5Format settings, BVOP : 2Format settings, QPel : NoFormat settings, GMC : No warppointsFormat settings, Matrix : CustomCodec ID : XVIDCodec ID/Hint : XviDDuration : 9mn 57sBit rate : 2 101 KbpsWidth : 704 pixelsHeight : 528 pixelsDisplay aspect ratio : 5:4Original display aspect ratio : 4:3Frame rate : 25.000 fpsColor space : YUVChroma subsampling : 4:2:0Bit depth : 8 bitsScan type : ProgressiveCompression mode : LossyBits/(Pixel*Frame) : 0.226Stream size : 150 MiB (91%)Writing library : XviD 65
AudioID : 1Format : AC-3Format/Info : Audio Coding 3Mode extension : CM (complete main)Format settings, Endianness : BigCodec ID : 2000Duration : 9mn 57sBit rate mode : ConstantBit rate : 192 KbpsChannel(s) : 1 channelChannel positions : Front: CSampling rate : 48.0 KHzBit depth : 16 bitsCompression mode : LossyStream size : 13.7 MiB (8%)Alignment : Split accross interleavesInterleave, duration : 40 ms (1.00 video frame)Interleave, preload duration : 500 ms

сравнение

Сравнение с
Тут -- http://screenshotcomparison.com/comparison/11885/picture:1

Скриншоты

[Цитировать]



Показать сообщения:    

Текущее время: 09-Дек 04:53

Часовой пояс: UTC + 3


Вы не можете начинать темы
Вы не можете отвечать на сообщения
Вы не можете редактировать свои сообщения
Вы не можете удалять свои сообщения
Вы не можете голосовать в опросах
Вы не можете прикреплять файлы к сообщениям
Вы не можете скачивать файлы

!ВНИМАНИЕ!
Сайт не предоставляет электронные версии произведений, а занимается лишь коллекционированием и каталогизацией ссылок, присылаемых и публикуемых на форуме нашими читателями. Если вы являетесь правообладателем какого-либо представленного материала и не желаете, чтобы ссылка на него находилась в нашем каталоге, свяжитесь с нами, и мы незамедлительно удалим ее. Файлы для обмена на трекере предоставлены пользователями сайта, и администрация не несет ответственности за их содержание. Просьба не заливать файлы, защищенные авторскими правами, а также файлы нелегального содержания!