[ Today is free to download without increasing Download ]

DL-List and Torrent activity
Дима отправляется в путь
Страна: СССР
Жанр: Рисованный муотфильм
Продолжительность: 00:16:16
Год выпуска: 1978
Русские субтитры: нет
Режиссёр: Виталий Песков
Описание: Мультипликационный фильм для детей о том, как пионер Дима выбирал профессию. В фильме звучит песня "Девчонка из квартиры 45" в исполнении популярного в 70 - 80х музыкального коллектива ВИА Музыка
Доп. информация: ТО„Экран“
Релиз группы:
Качество: SATRip
Формат: AVI
Видео: 704x528 (1.33:1), 25 fps, XviD build 65 ~2099 kbps avg, 0.23 bit/pixel
Аудио: 48 kHz, AC3 Dolby Digital, 1/0 (C) ch, ~192.00 kbps avg
Субтитры: нет

Подробные технические данные

Format                                   : AVIFormat/Info                              : Audio Video InterleaveFile size                                : 268 MiBDuration                                 : 16mn 16sOverall bit rate                         : 2 302 KbpsWriting application                      : VirtualDubModRus (build 2542/release)Copyright                                : Rutracker.orgComment                                  : SATRip by dvdss
VideoID : 0Format : MPEG-4 VisualFormat profile : Advanced Simple@L5Format settings, BVOP : 2Format settings, QPel : NoFormat settings, GMC : No warppointsFormat settings, Matrix : CustomCodec ID : XVIDCodec ID/Hint : XviDDuration : 16mn 16sBit rate : 2 100 KbpsWidth : 704 pixelsHeight : 528 pixelsDisplay aspect ratio : 5:4Original display aspect ratio : 4:3Frame rate : 25.000 fpsColor space : YUVChroma subsampling : 4:2:0Bit depth : 8 bitsScan type : ProgressiveCompression mode : LossyBits/(Pixel*Frame) : 0.226Stream size : 244 MiB (91%)Writing library : XviD 65
AudioID : 1Format : AC-3Format/Info : Audio Coding 3Mode extension : CM (complete main)Format settings, Endianness : BigCodec ID : 2000Duration : 16mn 15sBit rate mode : ConstantBit rate : 192 KbpsChannel(s) : 1 channelChannel positions : Front: CSampling rate : 48.0 KHzBit depth : 16 bitsCompression mode : LossyStream size : 22.3 MiB (8%)Alignment : Split accross interleavesInterleave, duration : 40 ms (1.00 video frame)Interleave, preload duration : 500 ms


Сравнение с
Тут -- http://screenshotcomparison.com/comparison/11157/picture:2


Display posts:    

Current time is: 22-Oct 00:55

All times are UTC + 3

You cannot post new topics in this forum
You cannot reply to topics in this forum
You cannot edit your posts in this forum
You cannot delete your posts in this forum
You cannot vote in polls in this forum
You cannot attach files in this forum
You cannot download files in this forum

The site does not give electronic versions of products, and is engaged only in a collecting and cataloguing of the references sent and published at a forum by our readers. If you are the legal owner of any submitted material and do not wish that the reference to it was in our catalogue, contact us and we shall immediately remove her. Files for an exchange on tracker are given by users of a site, and the administration does not bear the responsibility for their maintenance. The request to not fill in the files protected by copyrights, and also files of the illegal maintenance!