[ Today is free to download without increasing Download ]

DL-List and Torrent activity
Лиса и журавль
Страна: Беларусь
Жанр: Рисованный мультфильм
Продолжительность: 00:12:37
Год выпуска: 2010
Русские субтитры: нет
Режиссёр: Владимир Петкевич
Роли озвучивали: Александр Ткачёнок, Екатерина Шатрова
Описание: По мотивам народной сказки. Повстречались как-то Лиса и Журавль. И решили они жить вместе. Но ничего у них из этого не получилось - слишком разными они оказались существами.
Доп. информация: «Беларусьфильм»
Сценарий: Д.Якутович
Раздача группы:
Исходник для рипа предоставлен ItarTass
Рип by Lika1603
Работа со звуком dvdss
Качество: SATRip
Формат: AVI
Видео: 704x528 (1.33:1), 25 fps, XviD build 50 ~1997 kbps avg, 0.22 bit/pixel
Аудио: 48 kHz, AC3 Dolby Digital, 2/0 (L,R) ch, ~192.00 kbps avg
Субтитры: нет

Подробные технические данные

Format                                   : AVIFormat/Info                              : Audio Video InterleaveFile size                                : 199 MiBDuration                                 : 12mn 37sOverall bit rate                         : 2 199 KbpsWriting application                      : VirtualDubModRus (build 2542/release)Writing library                          : VirtualDubMod build 2542/release
VideoID : 0Format : MPEG-4 VisualFormat profile : Simple@L3Format settings, BVOP : NoFormat settings, QPel : NoFormat settings, GMC : No warppointsFormat settings, Matrix : Default (H.263)Codec ID : XVIDCodec ID/Hint : XviDDuration : 12mn 37sBit rate : 1 998 KbpsWidth : 704 pixelsHeight : 528 pixelsDisplay aspect ratio : 4:3Frame rate : 25.000 fpsColor space : YUVChroma subsampling : 4:2:0Bit depth : 8 bitsScan type : ProgressiveCompression mode : LossyBits/(Pixel*Frame) : 0.215Stream size : 180 MiB (91%)Writing library : XviD 1.2.1 (UTC 2008-12-04)
AudioID : 1Format : AC-3Format/Info : Audio Coding 3Mode extension : CM (complete main)Format settings, Endianness : BigCodec ID : 2000Duration : 12mn 37sBit rate mode : ConstantBit rate : 192 KbpsChannel(s) : 2 channelsChannel positions : Front: L RSampling rate : 48.0 KHzBit depth : 16 bitsCompression mode : LossyStream size : 17.3 MiB (9%)Alignment : Split accross interleavesInterleave, duration : 40 ms (1.00 video frame)Interleave, preload duration : 500 ms



Display posts:    

Current time is: 29-Oct 02:31

All times are UTC + 3

You cannot post new topics in this forum
You cannot reply to topics in this forum
You cannot edit your posts in this forum
You cannot delete your posts in this forum
You cannot vote in polls in this forum
You cannot attach files in this forum
You cannot download files in this forum

The site does not give electronic versions of products, and is engaged only in a collecting and cataloguing of the references sent and published at a forum by our readers. If you are the legal owner of any submitted material and do not wish that the reference to it was in our catalogue, contact us and we shall immediately remove her. Files for an exchange on tracker are given by users of a site, and the administration does not bear the responsibility for their maintenance. The request to not fill in the files protected by copyrights, and also files of the illegal maintenance!