[ Today is free to download without increasing Download ]

DL-List and Torrent activity
Страна: СССР
Жанр: Рисованный мультфильм
Продолжительность: 00:06:04
Год выпуска: 1985
Русские субтитры: нет
Режиссёр: Наталья Орлова
Роли озвучивали: Ролан Быков
Описание: Фильм по мотивам стихотворения Б.Заходера. Жил-был Серенький Волчок, тот самый из колыбельной, что придёт и укусит за бочок. Он так всех вокруг и предупреждал: "Укушу... Утащу... И съем!" Надоело зверям его песни слушать, разбежались кто куда, а он один остался. И некого ему кусать стало, кроме собственного хвоста. Так целыми днями и гонялись: он за хвостом, хвост от него. Крутились они с хвостом, крутились, и стал превращаться он... Нет, ни в кого не превратился. А просто стал другим волчком - никого не обижает, а ребята в него играют
Доп. информация:
Высшие курсы сценаристов и режиссеров
Дипломная работа режиссера Н.Орловой
Художественный руководитель: Федор Хитрук
Художник-постановщик: Е.Марченко
Раздача группы:
Качество: DVDRip
Формат: AVI
Видео: 704x528 (1.33:1), 25 fps, XviD MPEG-4 ~1653 kbps avg, 0.18 bit/pixel
Аудио: 48 kHz, AC3 Dolby Digital, 2/0 (L,R) ch, ~192.00 kbps avg
Субтитры: нет

Подробные технические данные

Format                                   : AVIFormat/Info                              : Audio Video InterleaveFile size                                : 80.5 MiBDuration                                 : 6mn 4sOverall bit rate                         : 1 852 Kbps
VideoID : 0Format : MPEG-4 VisualFormat profile : Simple@L3Format settings, BVOP : 2Format settings, QPel : NoFormat settings, GMC : No warppointsFormat settings, Matrix : Default (H.263)Muxing mode : Packed bitstreamCodec ID : XVIDCodec ID/Hint : XviDDuration : 6mn 4sBit rate : 1 653 KbpsWidth : 704 pixelsHeight : 528 pixelsDisplay aspect ratio : 4:3Frame rate : 25.000 fpsColor space : YUVChroma subsampling : 4:2:0Bit depth : 8 bitsScan type : ProgressiveCompression mode : LossyBits/(Pixel*Frame) : 0.178Stream size : 71.8 MiB (89%)Writing library : XviD 1.1.0 Beta2 (UTC 2005-04-04)
AudioID : 1Format : AC-3Format/Info : Audio Coding 3Mode extension : CM (complete main)Format settings, Endianness : BigCodec ID : 2000Duration : 6mn 4sBit rate mode : ConstantBit rate : 192 KbpsChannel(s) : 2 channelsChannel positions : Front: L RSampling rate : 48.0 KHzBit depth : 16 bitsCompression mode : LossyDelay relative to video : 12msStream size : 8.34 MiB (10%)Alignment : Split accross interleavesInterleave, duration : 84 ms (2.10 video frames)


Тут -- http://screenshotcomparison.com/comparison/12660/picture:2



Display posts:    

Current time is: 25-Oct 22:09

All times are UTC + 3

You cannot post new topics in this forum
You cannot reply to topics in this forum
You cannot edit your posts in this forum
You cannot delete your posts in this forum
You cannot vote in polls in this forum
You cannot attach files in this forum
You cannot download files in this forum

The site does not give electronic versions of products, and is engaged only in a collecting and cataloguing of the references sent and published at a forum by our readers. If you are the legal owner of any submitted material and do not wish that the reference to it was in our catalogue, contact us and we shall immediately remove her. Files for an exchange on tracker are given by users of a site, and the administration does not bear the responsibility for their maintenance. The request to not fill in the files protected by copyrights, and also files of the illegal maintenance!