[ Сегодня идет свободное скачивание без начисления Download ]


Статистика раздачи
Нет
 
   
 
Top  
 
 
Без этого нельзя
Страна: CCCР
Жанр: Рисованный мультфильм
Продолжительность: 00:09:24
Год выпуска: 1971
Русские субтитры: нет
Режиссёр: Михаил Ботов
Роли озвучивали: К. Румянова, Э. Гарин, Т. Пельтцер, А. Баранов, Н. Зорская, Л. Гнилова
Описание: Маленький Щенок не слушал старших, грубил и поэтому никто не хотел с ним дружить. Поняв, что без друзей очень плохо, Щенок решил быть вежливым и воспитанным.
Доп. информация: сценарист Екатерина Карганова
художник-постановщик Константин Карпов
оператор Михаил Друян
композитор Людмила Лядова
звукооператор Владимир Кутузов
Релиз группы:
Исходник для рипа любезно предоставлен SLuMeP
Качество: SATRip
Формат: AVI
Видео: 704x528 (1.33:1), 25 fps, XviD build 65 ~2100 kbps avg, 0.23 bit/pixel
Аудио: 48 kHz, AC3 Dolby Digital, 2/0 (L,R) ch, ~192.00 kbps avg
Субтитры: нет

Подробные технические данные

Format                                   : AVIFormat/Info                              : Audio Video InterleaveFile size                                : 155 MiBDuration                                 : 9mn 24sOverall bit rate                         : 2 302 KbpsWriting application                      : VirtualDubModRus 1.5.10.2 (build 2542/release)Copyright                                : Rutracker.orgComment                                  : SATRip by dvdss
VideoID : 0Format : MPEG-4 VisualFormat profile : Advanced [email protected] settings, BVOP : 2Format settings, QPel : NoFormat settings, GMC : No warppointsFormat settings, Matrix : CustomCodec ID : XVIDCodec ID/Hint : XviDDuration : 9mn 24sBit rate : 2 101 KbpsWidth : 704 pixelsHeight : 528 pixelsDisplay aspect ratio : 5:4Original display aspect ratio : 4:3Frame rate : 25.000 fpsColor space : YUVChroma subsampling : 4:2:0Bit depth : 8 bitsScan type : ProgressiveCompression mode : LossyBits/(Pixel*Frame) : 0.226Stream size : 141 MiB (91%)Writing library : XviD 65
AudioID : 1Format : AC-3Format/Info : Audio Coding 3Mode extension : CM (complete main)Format settings, Endianness : BigCodec ID : 2000Duration : 9mn 24sBit rate mode : ConstantBit rate : 192 KbpsChannel(s) : 2 channelsChannel positions : Front: L RSampling rate : 48.0 KHzBit depth : 16 bitsCompression mode : LossyStream size : 12.9 MiB (8%)Alignment : Split accross interleavesInterleave, duration : 40 ms (1.00 video frame)Interleave, preload duration : 500 ms

сравнение

сравнение

Сравнение1 с Dinnna
Тут -- http://screenshotcomparison.com/comparison/13718/picture:1
Сравнение2 с alex6161
Тут -- http://screenshotcomparison.com/comparison/13720/picture:0
или тут

сравнение с Dinnna

Dinnna______________________dvdss


сравнение с alex6161

alex6161____________________dvdss


Скриншоты

[Цитировать]



Показать сообщения:    

Текущее время: 04-Дек 23:27

Часовой пояс: UTC + 3


Вы не можете начинать темы
Вы не можете отвечать на сообщения
Вы не можете редактировать свои сообщения
Вы не можете удалять свои сообщения
Вы не можете голосовать в опросах
Вы не можете прикреплять файлы к сообщениям
Вы не можете скачивать файлы

!ВНИМАНИЕ!
Сайт не предоставляет электронные версии произведений, а занимается лишь коллекционированием и каталогизацией ссылок, присылаемых и публикуемых на форуме нашими читателями. Если вы являетесь правообладателем какого-либо представленного материала и не желаете, чтобы ссылка на него находилась в нашем каталоге, свяжитесь с нами, и мы незамедлительно удалим ее. Файлы для обмена на трекере предоставлены пользователями сайта, и администрация не несет ответственности за их содержание. Просьба не заливать файлы, защищенные авторскими правами, а также файлы нелегального содержания!