[ Сегодня идет свободное скачивание без начисления Download ]


Статистика раздачи
Нет
 
   
 
Top  
 
 
Неразумное желаниеКитайская сказка
Год выпуска: 2012
Страна: Россия
Жанр: короткометражный анимационный фильм
Продолжительность: 00:05:07
субтитры: отсутствуют- Режиссёр: Сергей Ромашкин
Роли озвучивали: Андрей Ярославцев- Описание: Жизнь черепахи, была размеренна и спокойна, до той поры, пока она не увидела быстроногого оленя и не захотела стать такой же ловкой и быстрой. И хотя олень не смог дать ей совет как развить подобную скорость, черепаха решила действовать сама. Однако, ни ходули, ни тележка, ни даже воздушный змей, ей не помогли. А может быть снять панцирь? И действительно, сняв его, черепаха побежала так же быстро как олень. Но тут вмешался хищный тигр. И черепахе пришлось залезать обратно в панцирь, - ведь лучше быть живой, чем быстрой.-за изготовление постера большое спасибо Lika1603
релиз:- Качество: WEBRip
Формат: AVI
Видео кодек: XviD
Аудио кодек: МР3
Видео: 720x400 , (1.80:1), 25 fps, XviD build 65 ~2163 kbps avg, 0.30 bit/pixel
Аудио: 44.100 kHz, MPEG Layer 3, 2 ch, ~128.00 kbps avg-

MediaInfo

Общее
Полное имя : H:\Отечественные мультфильмы\Неразумное желание.2012.WEBRip.avi
Формат : AVI
Формат/Информация : Audio Video Interleave
Размер файла : 84,3 Мбайт
Продолжительность : 5 м. 7 с.
Общий поток : 2301 Кбит/сек
Программа кодирования : VirtualDubMod 1.5.10.3 (build 2550/release)
Библиотека кодирования : VirtualDubMod build 2550/release
Видео
Идентификатор : 0
Формат : MPEG-4 Visual
Профиль формата : Advanced Simple@L5
Параметр BVOP формата : 2
Параметр QPel формата : Нет
Параметр GMC формата : Без точки перехода
Параметр матрицы формата : Выборочная
Идентификатор кодека : XVID
Идентификатор кодека/Подсказка : XviD
Продолжительность : 5 м. 7 с.
Битрейт : 2163 Кбит/сек
Ширина : 720 пикселей
Высота : 400 пикселей
Соотношение сторон : 16:9
Частота кадров : 25,000 кадров/сек
Цветовое пространство : YUV
Субдискретизация насыщенности : 4:2:0
Битовая глубина : 8 бит
Тип развёртки : Прогрессивная
Метод сжатия : С потерями
Бит/(Пиксели*Кадры) : 0.300
Размер потока : 79,3 Мбайт (94%)
Библиотека кодирования : XviD 65
Аудио
Идентификатор : 1
Формат : MPEG Audio
Версия формата : Version 1
Профиль формата : Layer 3
Режим : Joint stereo
Расширение режима : MS Stereo
Идентификатор кодека : 55
Идентификатор кодека/Подсказка : MP3
Продолжительность : 5 м. 7 с.
Вид битрейта : Постоянный
Битрейт : 128 Кбит/сек
Каналы : 2 канала
Частота : 44,1 КГц
Метод сжатия : С потерями
Размер потока : 4,69 Мбайт (6%)
Выравнивание : Разделение по промежуткам
Продолжительность промежутка : 40 мс. (1,00 видеокадр)
Время предзагрузки промежутка : 500 мс.
Библиотека кодирования : LAME3.99r
Настройки программы : -m j -V 4 -q 3 -lowpass 17 -b 128
Не забываем оставлять комментарии к релизу, мне интересно Ваше мнение!

[Цитировать]



Показать сообщения:    

Текущее время: 09-Дек 22:21

Часовой пояс: UTC + 3


Вы не можете начинать темы
Вы не можете отвечать на сообщения
Вы не можете редактировать свои сообщения
Вы не можете удалять свои сообщения
Вы не можете голосовать в опросах
Вы не можете прикреплять файлы к сообщениям
Вы не можете скачивать файлы

!ВНИМАНИЕ!
Сайт не предоставляет электронные версии произведений, а занимается лишь коллекционированием и каталогизацией ссылок, присылаемых и публикуемых на форуме нашими читателями. Если вы являетесь правообладателем какого-либо представленного материала и не желаете, чтобы ссылка на него находилась в нашем каталоге, свяжитесь с нами, и мы незамедлительно удалим ее. Файлы для обмена на трекере предоставлены пользователями сайта, и администрация не несет ответственности за их содержание. Просьба не заливать файлы, защищенные авторскими правами, а также файлы нелегального содержания!