[ Today is free to download without increasing Download ]

DL-List and Torrent activity
Страна: СССР
Жанр: рисованный
Продолжительность: 00:09:40
Год выпуска: 1983
Русские субтитры: нет
Режиссёр: Дмитрий Такайшвили
Роли озвучивали: без монологов и диалогов
Описание: Фильм-притча о фашистской угрозе
Доп. информация: сценарист Теймураз Сихарулидзе
художник-постановщик Теймураз Сихарулидзе
композитор Т. Бакурадзе
Семпл: http://yadi.sk/d/Q91Tobfh3b73g
Качество: DVDRip
Формат: AVI
Видео: XVID 720х480 29.970 fps 4 746 Kbps
Аудио: MP3 44.1 KHz 2 channels 192 Kbps
Субтитры: отсутствуют

Подробные технические данные

GeneralComplete name                    : C:\Users\Саша\Downloads\mult\chuma.aviFormat                           : AVIFormat/Info                      : Audio Video InterleaveFile size                        : 342 MiBDuration                         : 9mn 40sOverall bit rate                 : 4 950 KbpsWriting application              : VirtualDubMod (build 2540/release)Writing library                  : VirtualDubMod build 2540/release
VideoID : 0Format : MPEG-4 VisualFormat profile : Advanced Simple@L5Format settings, BVOP : NoFormat settings, QPel : NoFormat settings, GMC : No warppointsFormat settings, Matrix : Default (MPEG)Codec ID : XVIDCodec ID/Hint : XviDDuration : 9mn 40sBit rate : 4 746 KbpsWidth : 720 pixelsHeight : 480 pixelsDisplay aspect ratio : 1.500Frame rate : 29.970 fpsStandard : NTSCResolution : 8 bitsColorimetry : 4:2:0Scan type : ProgressiveBits/(Pixel*Frame) : 0.458Stream size : 328 MiB (96%)Writing library : XviD 1.2.1 (UTC 2008-12-04)
AudioID : 1Format : MPEG AudioFormat version : Version 1Format profile : Layer 3Codec ID : 55Codec ID/Hint : MP3Duration : 9mn 40sBit rate mode : ConstantBit rate : 192 KbpsChannel(s) : 2 channelsSampling rate : 44.1 KHzStream size : 13.3 MiB (4%)Alignment : Split accross interleavesInterleave, duration : 33 ms (1.00 video frame)Interleave, preload duration : 500 msWriting library : LAMELAME_MAJOR_VERSI



Display posts:    

Current time is: 28-Oct 01:35

All times are UTC + 3

You cannot post new topics in this forum
You cannot reply to topics in this forum
You cannot edit your posts in this forum
You cannot delete your posts in this forum
You cannot vote in polls in this forum
You cannot attach files in this forum
You cannot download files in this forum

The site does not give electronic versions of products, and is engaged only in a collecting and cataloguing of the references sent and published at a forum by our readers. If you are the legal owner of any submitted material and do not wish that the reference to it was in our catalogue, contact us and we shall immediately remove her. Files for an exchange on tracker are given by users of a site, and the administration does not bear the responsibility for their maintenance. The request to not fill in the files protected by copyrights, and also files of the illegal maintenance!