[ Сегодня идет свободное скачивание без начисления Download ]


Статистика раздачи
Нет
 
   
 
Top  
 
 
Чума
Страна: СССР
Жанр: рисованный
Продолжительность: 00:09:40
Год выпуска: 1983
Русские субтитры: нет
Режиссёр: Дмитрий Такайшвили
Роли озвучивали: без монологов и диалогов
Описание: Фильм-притча о фашистской угрозе
Доп. информация: сценарист Теймураз Сихарулидзе
художник-постановщик Теймураз Сихарулидзе
композитор Т. Бакурадзе
Семпл: http://yadi.sk/d/Q91Tobfh3b73g
Качество: DVDRip
Формат: AVI
Видео: XVID 720х480 29.970 fps 4 746 Kbps
Аудио: MP3 44.1 KHz 2 channels 192 Kbps
Субтитры: отсутствуют

Подробные технические данные

GeneralComplete name                    : C:\Users\Саша\Downloads\mult\chuma.aviFormat                           : AVIFormat/Info                      : Audio Video InterleaveFile size                        : 342 MiBDuration                         : 9mn 40sOverall bit rate                 : 4 950 KbpsWriting application              : VirtualDubMod 1.5.10.2 (build 2540/release)Writing library                  : VirtualDubMod build 2540/release
VideoID : 0Format : MPEG-4 VisualFormat profile : Advanced Simple@L5Format settings, BVOP : NoFormat settings, QPel : NoFormat settings, GMC : No warppointsFormat settings, Matrix : Default (MPEG)Codec ID : XVIDCodec ID/Hint : XviDDuration : 9mn 40sBit rate : 4 746 KbpsWidth : 720 pixelsHeight : 480 pixelsDisplay aspect ratio : 1.500Frame rate : 29.970 fpsStandard : NTSCResolution : 8 bitsColorimetry : 4:2:0Scan type : ProgressiveBits/(Pixel*Frame) : 0.458Stream size : 328 MiB (96%)Writing library : XviD 1.2.1 (UTC 2008-12-04)
AudioID : 1Format : MPEG AudioFormat version : Version 1Format profile : Layer 3Codec ID : 55Codec ID/Hint : MP3Duration : 9mn 40sBit rate mode : ConstantBit rate : 192 KbpsChannel(s) : 2 channelsSampling rate : 44.1 KHzStream size : 13.3 MiB (4%)Alignment : Split accross interleavesInterleave, duration : 33 ms (1.00 video frame)Interleave, preload duration : 500 msWriting library : LAMELAME_MAJOR_VERSI

Скриншоты





[Цитировать]



Показать сообщения:    

Текущее время: 07-Дек 11:41

Часовой пояс: UTC + 3


Вы не можете начинать темы
Вы не можете отвечать на сообщения
Вы не можете редактировать свои сообщения
Вы не можете удалять свои сообщения
Вы не можете голосовать в опросах
Вы не можете прикреплять файлы к сообщениям
Вы не можете скачивать файлы

!ВНИМАНИЕ!
Сайт не предоставляет электронные версии произведений, а занимается лишь коллекционированием и каталогизацией ссылок, присылаемых и публикуемых на форуме нашими читателями. Если вы являетесь правообладателем какого-либо представленного материала и не желаете, чтобы ссылка на него находилась в нашем каталоге, свяжитесь с нами, и мы незамедлительно удалим ее. Файлы для обмена на трекере предоставлены пользователями сайта, и администрация не несет ответственности за их содержание. Просьба не заливать файлы, защищенные авторскими правами, а также файлы нелегального содержания!