[ Сегодня идет свободное скачивание без начисления Download ]


Статистика раздачи
Нет
 
   
 
Top  
 
 
Гори, гори ясно
Страна: СССР
Жанр: Кукольный мультфильм
Продолжительность: 00:07:24
Год выпуска: 1983
Русские субтитры: нет
Режиссёр: Лидия Сурикова
Описание: Потешки и считалочки В.Берестова
Доп. информация: Производство:ТО "Экран"
Художник-постановщик: Ю. Исайкин
Оператор: Е. Туревич
Композитор: И. Тамарин
Звукооператор: В. Азаровский
Художники-мультипликаторы: К. Малянтович, О. Анашкина
Куклы изготовили: М. Богатская, Л. Доронина, Г. Круглова, Е. Покровская, В. Слетков, Г. Богачев, А. Дягтерев, Б. Караваев, Н. Пантелеева, Н. Лярская
Релиз группы:
Качество: DVDRip
Формат: AVI
Видео: 704x528 (1.33:1), 25 fps, XviD 65~2096 kbps avg, 0.23 bit/pixel
Аудио: 48 kHz, AC3 Dolby Digital, 2/0 (L,R) ch, ~192.00 kbps avg
Субтитры: нет

Подробные технические данные

Format                                   : AVIFormat/Info                              : Audio Video InterleaveFile size                                : 122 MiBDuration                                 : 7mn 24sOverall bit rate                         : 2 299 KbpsWriting application                      : VirtualDubModRus 1.5.10.2 (build 2542/release)Copyright                                : Rutracker.orgComment                                  : DVDRip by dvdss
VideoID : 0Format : MPEG-4 VisualFormat profile : Advanced Simple@L5Format settings, BVOP : 2Format settings, QPel : NoFormat settings, GMC : No warppointsFormat settings, Matrix : CustomCodec ID : XVIDCodec ID/Hint : XviDDuration : 7mn 24sBit rate : 2 097 KbpsWidth : 704 pixelsHeight : 528 pixelsDisplay aspect ratio : 5:4Original display aspect ratio : 4:3Frame rate : 25.000 fpsColor space : YUVChroma subsampling : 4:2:0Bit depth : 8 bitsScan type : ProgressiveCompression mode : LossyBits/(Pixel*Frame) : 0.226Stream size : 111 MiB (91%)Writing library : XviD 65
AudioID : 1Format : AC-3Format/Info : Audio Coding 3Mode extension : CM (complete main)Format settings, Endianness : BigCodec ID : 2000Duration : 7mn 24sBit rate mode : ConstantBit rate : 192 KbpsChannel(s) : 2 channelsChannel positions : Front: L RSampling rate : 48.0 KHzBit depth : 16 bitsCompression mode : LossyStream size : 10.2 MiB (8%)Alignment : Aligned on interleavesInterleave, duration : 40 ms (1.00 video frame)Interleave, preload duration : 512 ms

сравнение

Сравнение с
Тут -- http://screenshotcomparison.com/comparison/15872

Скриншоты

[Цитировать]



Показать сообщения:    

Текущее время: 08-Дек 03:13

Часовой пояс: UTC + 3


Вы не можете начинать темы
Вы не можете отвечать на сообщения
Вы не можете редактировать свои сообщения
Вы не можете удалять свои сообщения
Вы не можете голосовать в опросах
Вы не можете прикреплять файлы к сообщениям
Вы не можете скачивать файлы

!ВНИМАНИЕ!
Сайт не предоставляет электронные версии произведений, а занимается лишь коллекционированием и каталогизацией ссылок, присылаемых и публикуемых на форуме нашими читателями. Если вы являетесь правообладателем какого-либо представленного материала и не желаете, чтобы ссылка на него находилась в нашем каталоге, свяжитесь с нами, и мы незамедлительно удалим ее. Файлы для обмена на трекере предоставлены пользователями сайта, и администрация не несет ответственности за их содержание. Просьба не заливать файлы, защищенные авторскими правами, а также файлы нелегального содержания!