[ Today is free to download without increasing Download ]

DL-List and Torrent activity
Лягушка Пипа
Страна: Россия
Жанр: Рисованный мультфильм
Продолжительность: 00:04:12
Год выпуска: 1992
Русские субтитры: нет
Режиссёр: Борис Акулиничев
Роли озвучивали: Л.Ильина, И.Верник
Описание: О лягушке-фантазерке, которая вообразила себя медведем, о ее встрече с охотником на медведей и тех приключениях, которые с ними произошли.
Доп. информация: Производство:ТО "Экран"
Монтажер: О.Чекалина
Сценарий: С.Седов
Релиз группы:
Огромное спасибо sid2857 за оцифровку личного архива и предоставления исходников редкого материала!
Качество: VHSRip
Формат: AVI
Видео: 704x528 (1.33:1), 25 fps, XviD 65~2101 kbps avg, 0.23 bit/pixel
Аудио: 48 kHz, AC3 Dolby Digital, 2/0 (L,R) ch, ~192.00 kbps avg
Субтитры: нет

Подробные технические данные

Format                                   : AVIFormat/Info                              : Audio Video InterleaveFile size                                : 88.3 MiBDuration                                 : 5mn 21sOverall bit rate                         : 2 301 KbpsWriting application                      : VirtualDubModRus (build 2542/release)Copyright                                : Rutracker.orgComment                                  : VHSRip by dvdss
VideoID : 0Format : MPEG-4 VisualFormat profile : Advanced Simple@L5Format settings, BVOP : 2Format settings, QPel : NoFormat settings, GMC : No warppointsFormat settings, Matrix : CustomCodec ID : XVIDCodec ID/Hint : XviDDuration : 5mn 21sBit rate : 2 099 KbpsWidth : 704 pixelsHeight : 528 pixelsDisplay aspect ratio : 5:4Original display aspect ratio : 4:3Frame rate : 25.000 fpsColor space : YUVChroma subsampling : 4:2:0Bit depth : 8 bitsScan type : ProgressiveCompression mode : LossyBits/(Pixel*Frame) : 0.226Stream size : 80.5 MiB (91%)Writing library : XviD 65
AudioID : 1Format : AC-3Format/Info : Audio Coding 3Mode extension : CM (complete main)Format settings, Endianness : BigCodec ID : 2000Duration : 5mn 21sBit rate mode : ConstantBit rate : 192 KbpsChannel(s) : 2 channelsChannel positions : Front: L RSampling rate : 48.0 KHzBit depth : 16 bitsCompression mode : LossyStream size : 7.37 MiB (8%)Alignment : Split accross interleavesInterleave, duration : 40 ms (1.00 video frame)Interleave, preload duration : 500 ms


Сравнение с
Тут -- http://screenshotcomparison.com/comparison/16633/picture:1



Display posts:    

Current time is: 21-Oct 03:38

All times are UTC + 3

You cannot post new topics in this forum
You cannot reply to topics in this forum
You cannot edit your posts in this forum
You cannot delete your posts in this forum
You cannot vote in polls in this forum
You cannot attach files in this forum
You cannot download files in this forum

The site does not give electronic versions of products, and is engaged only in a collecting and cataloguing of the references sent and published at a forum by our readers. If you are the legal owner of any submitted material and do not wish that the reference to it was in our catalogue, contact us and we shall immediately remove her. Files for an exchange on tracker are given by users of a site, and the administration does not bear the responsibility for their maintenance. The request to not fill in the files protected by copyrights, and also files of the illegal maintenance!