[ Today is free to download without increasing Download ]

DL-List and Torrent activity
--Ослик Плюш-- Страна: СССР
Жанр: кукольный, мультфильм, короткометражка
Продолжительность: 00:31:38
Год выпуска: 1971
Русские субтитры: нет--Режиссёр: Леонид Аристов--Описание: Мультипликационный фильм для малышей по пьесе Г.Сапгира и Г.Цыферова о добром ослике Плюше.--Качество: DVDRip
Формат: AVI
Видео: Xvid, 704x512, 25fps, 1900kbps
Аудио: Dolby AC3, 48000Hz, stereo, 192kbps
Субтитры: отсутствуют

Подробные технические данные

Complete name                  : F:\TORRENTS\Oslik_Plush.avi
Format                         : AVI
Format/Info                    : Audio Video Interleave
File size                      : 476 MiB
Duration                       : 31mn 38s
Overall bit rate               : 2 102 Kbps
Writing application            : FairUse Wizard - http://fairusewizard.com
Writing library                : The best and REALLY easy backup tool
ID                             : 0
Format                         : MPEG-4 Visual
Format profile                 : Advanced Simple@L5
Format settings, BVOP          : 1
Format settings, QPel          : No
Format settings, GMC           : No warppoints
Format settings, Matrix        : Default (MPEG)
Muxing mode                    : Packed bitstream
Codec ID                       : XVID
Codec ID/Hint                  : XviD
Duration                       : 31mn 38s
Bit rate                       : 1 900 Kbps
Width                          : 704 pixels
Height                         : 512 pixels
Display aspect ratio           : 1.375
Frame rate                     : 25.000 fps
Color space                    : YUV
Chroma subsampling             : 4:2:0
Bit depth                      : 8 bits
Scan type                      : Progressive
Compression mode               : Lossy
Bits/(Pixel*Frame)             : 0.211
Stream size                    : 430 MiB (90%)
Writing library                : XviD 1.2.0.dev47 (UTC 2006-11-01)
ID                             : 1
Format                         : AC-3
Format/Info                    : Audio Coding 3
Mode extension                 : CM (complete main)
Format settings, Endianness    : Big
Codec ID                       : 2000
Duration                       : 31mn 38s
Bit rate mode                  : Constant
Bit rate                       : 192 Kbps
Channel(s)                     : 2 channels
Channel positions              : Front: L R
Sampling rate                  : 48.0 KHz
Bit depth                      : 16 bits
Compression mode               : Lossy
Stream size                    : 43.4 MiB (9%)
Alignment                      : Split accross interleaves
Interleave, duration           : 40 ms (1.00 video frame)
Interleave, preload duration   : 500 ms





Display posts:    

Current time is: 25-Oct 09:44

All times are UTC + 3

You cannot post new topics in this forum
You cannot reply to topics in this forum
You cannot edit your posts in this forum
You cannot delete your posts in this forum
You cannot vote in polls in this forum
You cannot attach files in this forum
You cannot download files in this forum

The site does not give electronic versions of products, and is engaged only in a collecting and cataloguing of the references sent and published at a forum by our readers. If you are the legal owner of any submitted material and do not wish that the reference to it was in our catalogue, contact us and we shall immediately remove her. Files for an exchange on tracker are given by users of a site, and the administration does not bear the responsibility for their maintenance. The request to not fill in the files protected by copyrights, and also files of the illegal maintenance!