[ Сегодня идет свободное скачивание без начисления Download ]


Статистика раздачи
Нет
 
   
 
Top  
 
 
--Ослик Плюш-- Страна: СССР
Жанр: кукольный, мультфильм, короткометражка
Продолжительность: 00:31:38
Год выпуска: 1971
Русские субтитры: нет--Режиссёр: Леонид Аристов--Описание: Мультипликационный фильм для малышей по пьесе Г.Сапгира и Г.Цыферова о добром ослике Плюше.--Качество: DVDRip
Формат: AVI
Видео: Xvid, 704x512, 25fps, 1900kbps
Аудио: Dolby AC3, 48000Hz, stereo, 192kbps
Субтитры: отсутствуют

Подробные технические данные

General
Complete name                  : F:\TORRENTS\Oslik_Plush.avi
Format                         : AVI
Format/Info                    : Audio Video Interleave
File size                      : 476 MiB
Duration                       : 31mn 38s
Overall bit rate               : 2 102 Kbps
Writing application            : FairUse Wizard - http://fairusewizard.com
Writing library                : The best and REALLY easy backup tool
Video
ID                             : 0
Format                         : MPEG-4 Visual
Format profile                 : Advanced [email protected]
Format settings, BVOP          : 1
Format settings, QPel          : No
Format settings, GMC           : No warppoints
Format settings, Matrix        : Default (MPEG)
Muxing mode                    : Packed bitstream
Codec ID                       : XVID
Codec ID/Hint                  : XviD
Duration                       : 31mn 38s
Bit rate                       : 1 900 Kbps
Width                          : 704 pixels
Height                         : 512 pixels
Display aspect ratio           : 1.375
Frame rate                     : 25.000 fps
Color space                    : YUV
Chroma subsampling             : 4:2:0
Bit depth                      : 8 bits
Scan type                      : Progressive
Compression mode               : Lossy
Bits/(Pixel*Frame)             : 0.211
Stream size                    : 430 MiB (90%)
Writing library                : XviD 1.2.0.dev47 (UTC 2006-11-01)
Audio
ID                             : 1
Format                         : AC-3
Format/Info                    : Audio Coding 3
Mode extension                 : CM (complete main)
Format settings, Endianness    : Big
Codec ID                       : 2000
Duration                       : 31mn 38s
Bit rate mode                  : Constant
Bit rate                       : 192 Kbps
Channel(s)                     : 2 channels
Channel positions              : Front: L R
Sampling rate                  : 48.0 KHz
Bit depth                      : 16 bits
Compression mode               : Lossy
Stream size                    : 43.4 MiB (9%)
Alignment                      : Split accross interleaves
Interleave, duration           : 40 ms (1.00 video frame)
Interleave, preload duration   : 500 ms

-
-

Скриншоты


-
-

[Цитировать]



Показать сообщения:    

Текущее время: 05-Дек 21:44

Часовой пояс: UTC + 3


Вы не можете начинать темы
Вы не можете отвечать на сообщения
Вы не можете редактировать свои сообщения
Вы не можете удалять свои сообщения
Вы не можете голосовать в опросах
Вы не можете прикреплять файлы к сообщениям
Вы не можете скачивать файлы

!ВНИМАНИЕ!
Сайт не предоставляет электронные версии произведений, а занимается лишь коллекционированием и каталогизацией ссылок, присылаемых и публикуемых на форуме нашими читателями. Если вы являетесь правообладателем какого-либо представленного материала и не желаете, чтобы ссылка на него находилась в нашем каталоге, свяжитесь с нами, и мы незамедлительно удалим ее. Файлы для обмена на трекере предоставлены пользователями сайта, и администрация не несет ответственности за их содержание. Просьба не заливать файлы, защищенные авторскими правами, а также файлы нелегального содержания!