[ Сегодня идет свободное скачивание без начисления Download ]


Статистика раздачи
Нет
 
   
 
Top  
 
 
Страницы Российской истории. Рассказ первый. Земля Предков
Страна: Россия
Жанр: Исторический
Продолжительность: 00:24:23
Год выпуска: 1994
Русские субтитры: нет
Режиссёр: Александр Гурьев
Роли озвучивали: Леонид Ярмольник, Ольга Волкова, Михаил Кононов, Всеволод Абдулов, Рогволд Суховерко
Описание: Мультфильм про Русь от эпохи князя Игоря до Святослава и так далее. Сюжет - на полке библиотеки сидит паучёк и читает книги по истории России, а комментирует их Буквоед, который периодически вырывает буквы из книг и смачно их поедает. Главный в диалоге нечто с хоботом.
Доп. информация: Мультфильм никогда не издавался ни на одном из существующих видов носителей видеоинформации, очень редкий, очень плохое качество, это видимо все что дожило до наших дней!
Качество: TVRip
Формат: MPG
Видео: mpeg, 720x576, 25 fps, 8500 kbps
Аудио: mpeg audio, 48.0 Khz, 2 ch, 224 kbps
Субтитры: отсутствуют

Скриншоты

MediaInfo

C:\ZP.mpg
General
Complete name : ZP.mpg
Format : MPEG-PS
File size : 1.51 GiB
Duration : 24mn 23s
Overall bit rate mode : Variable
Overall bit rate : 8 847 Kbps
Writing library : (c) 1998-2010 Womble Multimedia, Inc. / MPEG Video Wizard DVD 5.0.0.114 (01/2010) / Apr 20 2010
Video #224
ID : 224 (0xE0)
Format : MPEG Video
Format version : Version 2
Format profile : [email protected]
Format settings, BVOP : Yes
Format settings, Matrix : Custom
Format settings, GOP : M=3, N=12
Duration : 24mn 23s
Bit rate mode : Variable
Bit rate : 8 500 Kbps
Width : 720 pixels
Height : 576 pixels
Display aspect ratio : 4:3
Frame rate : 25.000 fps
Standard : PAL
Color space : YUV
Chroma subsampling : 4:2:0
Bit depth : 8 bits
Scan type : Interlaced
Scan order : Top Field First
Compression mode : Lossy
Bits/(Pixel*Frame) : 0.820
Time code of first frame : 00:00:00:00
Time code source : Group of pictures header
Stream size : 1.44 GiB (95%)
Writing library : (c) 1998-2010 Womble Multimedia, Inc. / MPEG Video Wizard DVD 5.0.0.114 (01/2010) / Apr 20 2010
Color primaries : BT.601 PAL
Transfer characteristics : BT.470 System B, BT.470 System G
Matrix coefficients : BT.601
Audio #192
ID : 192 (0xC0)
Format : MPEG Audio
Format version : Version 1
Format profile : Layer 2
Mode : Joint stereo
Mode extension : Intensity Stereo + MS Stereo
Duration : 24mn 23s
Bit rate mode : Constant
Bit rate : 224 Kbps
Channel(s) : 2 channels
Sampling rate : 48.0 KHz
Compression mode : Lossy
Stream size : 39.1 MiB (3%)

[Цитировать]



Показать сообщения:    

Текущее время: 04-Дек 21:27

Часовой пояс: UTC + 3


Вы не можете начинать темы
Вы не можете отвечать на сообщения
Вы не можете редактировать свои сообщения
Вы не можете удалять свои сообщения
Вы не можете голосовать в опросах
Вы не можете прикреплять файлы к сообщениям
Вы не можете скачивать файлы

!ВНИМАНИЕ!
Сайт не предоставляет электронные версии произведений, а занимается лишь коллекционированием и каталогизацией ссылок, присылаемых и публикуемых на форуме нашими читателями. Если вы являетесь правообладателем какого-либо представленного материала и не желаете, чтобы ссылка на него находилась в нашем каталоге, свяжитесь с нами, и мы незамедлительно удалим ее. Файлы для обмена на трекере предоставлены пользователями сайта, и администрация не несет ответственности за их содержание. Просьба не заливать файлы, защищенные авторскими правами, а также файлы нелегального содержания!