[ Today is free to download without increasing Download ]

DL-List and Torrent activity
Страницы Российской истории. Рассказ первый. Земля Предков
Страна: Россия
Жанр: Исторический
Продолжительность: 00:24:23
Год выпуска: 1994
Русские субтитры: нет
Режиссёр: Александр Гурьев
Роли озвучивали: Леонид Ярмольник, Ольга Волкова, Михаил Кононов, Всеволод Абдулов, Рогволд Суховерко
Описание: Мультфильм про Русь от эпохи князя Игоря до Святослава и так далее. Сюжет - на полке библиотеки сидит паучёк и читает книги по истории России, а комментирует их Буквоед, который периодически вырывает буквы из книг и смачно их поедает. Главный в диалоге нечто с хоботом.
Доп. информация: Мультфильм никогда не издавался ни на одном из существующих видов носителей видеоинформации, очень редкий, очень плохое качество, это видимо все что дожило до наших дней!
Качество: TVRip
Формат: MPG
Видео: mpeg, 720x576, 25 fps, 8500 kbps
Аудио: mpeg audio, 48.0 Khz, 2 ch, 224 kbps
Субтитры: отсутствуют



Complete name : ZP.mpg
Format : MPEG-PS
File size : 1.51 GiB
Duration : 24mn 23s
Overall bit rate mode : Variable
Overall bit rate : 8 847 Kbps
Writing library : (c) 1998-2010 Womble Multimedia, Inc. / MPEG Video Wizard DVD (01/2010) / Apr 20 2010
Video #224
ID : 224 (0xE0)
Format : MPEG Video
Format version : Version 2
Format profile : Main@Main
Format settings, BVOP : Yes
Format settings, Matrix : Custom
Format settings, GOP : M=3, N=12
Duration : 24mn 23s
Bit rate mode : Variable
Bit rate : 8 500 Kbps
Width : 720 pixels
Height : 576 pixels
Display aspect ratio : 4:3
Frame rate : 25.000 fps
Standard : PAL
Color space : YUV
Chroma subsampling : 4:2:0
Bit depth : 8 bits
Scan type : Interlaced
Scan order : Top Field First
Compression mode : Lossy
Bits/(Pixel*Frame) : 0.820
Time code of first frame : 00:00:00:00
Time code source : Group of pictures header
Stream size : 1.44 GiB (95%)
Writing library : (c) 1998-2010 Womble Multimedia, Inc. / MPEG Video Wizard DVD (01/2010) / Apr 20 2010
Color primaries : BT.601 PAL
Transfer characteristics : BT.470 System B, BT.470 System G
Matrix coefficients : BT.601
Audio #192
ID : 192 (0xC0)
Format : MPEG Audio
Format version : Version 1
Format profile : Layer 2
Mode : Joint stereo
Mode extension : Intensity Stereo + MS Stereo
Duration : 24mn 23s
Bit rate mode : Constant
Bit rate : 224 Kbps
Channel(s) : 2 channels
Sampling rate : 48.0 KHz
Compression mode : Lossy
Stream size : 39.1 MiB (3%)


Display posts:    

Current time is: 28-Oct 09:30

All times are UTC + 3

You cannot post new topics in this forum
You cannot reply to topics in this forum
You cannot edit your posts in this forum
You cannot delete your posts in this forum
You cannot vote in polls in this forum
You cannot attach files in this forum
You cannot download files in this forum

The site does not give electronic versions of products, and is engaged only in a collecting and cataloguing of the references sent and published at a forum by our readers. If you are the legal owner of any submitted material and do not wish that the reference to it was in our catalogue, contact us and we shall immediately remove her. Files for an exchange on tracker are given by users of a site, and the administration does not bear the responsibility for their maintenance. The request to not fill in the files protected by copyrights, and also files of the illegal maintenance!