[ Today is free to download without increasing Download ]

DL-List and Torrent activity
Лесная история
Страна: CCCР
Жанр: Рисованный мультфильм
Продолжительность: 00:09:26
Год выпуска: 1956
Русские субтитры: нет
Режиссёр: Лев Позднеев
Описание: Сказка-шутка для малышей о необходимости чистить зубы
Доп. информация: "Союзмультфильм"
сценаристы Александр Иванов, Сергей Скворцов
художники-постановщики М. Скобелев, Валентин Лалаянц
xудожники Дмитрий Анпилов, Лев Аркадьев, И. Прокофьева, Е. Танненберг
аниматоры Дмитрий Белов, Фаина Епифанова, Елизавета Комова, Борис Корнеев, Татьяна Федорова, Татьяна Таранович, Александр Пекарь, Лидия Резцова
оператор Елена Петрова
композитор Моисей Вайнберг
звукооператор Борис Фильчиков
текст песен (стихов) Лев Позднеев
Релиз группы:
Качество: DVDRip
Формат: AVI
Видео: 704x528 (1.33:1), 25 fps, XviD build 65 ~2089 kbps avg, 0.22 bit/pixel
Аудио: 48 kHz, AC3 Dolby Digital, 1/0 (C) ch, ~192.00 kbps avg
Субтитры: нет

Подробные технические данные

Format                                   : AVIFormat/Info                              : Audio Video InterleaveFile size                                : 155 MiBDuration                                 : 9mn 26sOverall bit rate                         : 2 292 KbpsWriting application                      : VirtualDubModRus (build 2542/release)Copyright                                : Rutracker.orgComment                                  : DVDRip by dvdss
VideoID : 0Format : MPEG-4 VisualFormat profile : Advanced Simple@L5Format settings, BVOP : 2Format settings, QPel : NoFormat settings, GMC : No warppointsFormat settings, Matrix : Default (MPEG)Codec ID : XVIDCodec ID/Hint : XviDDuration : 9mn 26sBit rate : 2 090 KbpsWidth : 704 pixelsHeight : 528 pixelsDisplay aspect ratio : 5:4Original display aspect ratio : 4:3Frame rate : 25.000 fpsColor space : YUVChroma subsampling : 4:2:0Bit depth : 8 bitsScan type : ProgressiveCompression mode : LossyBits/(Pixel*Frame) : 0.225Stream size : 141 MiB (91%)Writing library : XviD 65
AudioID : 1Format : AC-3Format/Info : Audio Coding 3Mode extension : CM (complete main)Format settings, Endianness : BigCodec ID : 2000Duration : 9mn 26sBit rate mode : ConstantBit rate : 192 KbpsChannel(s) : 1 channelChannel positions : Front: CSampling rate : 48.0 KHzBit depth : 16 bitsCompression mode : LossyDelay relative to video : 1s 500msStream size : 13.0 MiB (8%)Alignment : Split accross interleavesInterleave, duration : 40 ms (1.00 video frame)Interleave, preload duration : 500 ms


Сравнение с
Тут -- http://screenshotcomparison.com/comparison/20792/picture:1


Display posts:    

Current time is: 24-Oct 21:23

All times are UTC + 3

You cannot post new topics in this forum
You cannot reply to topics in this forum
You cannot edit your posts in this forum
You cannot delete your posts in this forum
You cannot vote in polls in this forum
You cannot attach files in this forum
You cannot download files in this forum

The site does not give electronic versions of products, and is engaged only in a collecting and cataloguing of the references sent and published at a forum by our readers. If you are the legal owner of any submitted material and do not wish that the reference to it was in our catalogue, contact us and we shall immediately remove her. Files for an exchange on tracker are given by users of a site, and the administration does not bear the responsibility for their maintenance. The request to not fill in the files protected by copyrights, and also files of the illegal maintenance!