[ Сегодня идет свободное скачивание без начисления Download ]


Статистика раздачи
Нет
 
   
 
Top  
 
 
Сказка о попе и о работнике его Балде
Жанр: мультфильм
Год выпуска: 1973
Продолжительность: 00:18:40
Режиссёр: Инесса Ковалевская
Описание: Мультипликационный фильм – музыкальное представление по мотивам одноименной сказки А.С. Пушкина, рассказывающее известную историю про скупого Попа, изворотливого Чертенка и развеселого Балду, который всех проучил ... Эту сказку Пушкина в нашей стране экранизировали как минимум три раза. Но мультфильм 1973 года выделяется из общего ряда великолепной музыкой и блистательным вокалом Олега Анофриева. В этот раз он превзошел все свои предыдущие достижения (включая первую часть "Бременских музыкантов"), ибо в "Сказке о попе..." поет за ВСЕХ героев - разными голосами, в дуэте, в трио, и так далее...
Доп. информация:

Трансляция спутникового канала: "Карусель"
Качество видео: DVB
Формат видео: MPEG-PS
Видео: MPEG2 Video, 720x576, 25 fps, 3700 kbps
Аудио: MPEG Audio, 2 сh, 48 kHz, 192 kbps

MediaInfo

General
Complete name : O:\Сказка о Попе и работнике его Балде. (1973)_DVB by SLuMeP.mpg
Format : MPEG-PS
File size : 529 MiB
Duration : 18mn 40s
Overall bit rate : 3 962 Kbps
Writing library : (c) 1998-2010 Womble Multimedia, Inc. / MPEG Video Wizard DVD 5.0.0.114 (01/2010) / Apr 20 2010
Video
ID : 224 (0xE0)
Format : MPEG Video
Format version : Version 2
Format profile : Main@Main
Format settings, BVOP : Yes
Format settings, Matrix : Default
Duration : 18mn 40s
Bit rate mode : Variable
Bit rate : 3 691 Kbps
Nominal bit rate : 5 000 Kbps
Width : 720 pixels
Height : 576 pixels
Display aspect ratio : 4:3
Frame rate : 25.000 fps
Standard : PAL
Color space : YUV
Chroma subsampling : 4:2:0
Bit depth : 8 bits
Scan type : Interlaced
Scan order : Top Field First
Bits/(Pixel*Frame) : 0.356
Stream size : 493 MiB (93%)
Writing library : (c) 1998-2010 Womble Multimedia, Inc. / MPEG Video Wizard DVD 5.0.0.114 (01/2010) / Apr 20 2010
Audio
ID : 192 (0xC0)
Format : MPEG Audio
Format version : Version 1
Format profile : Layer 2
Duration : 18mn 40s
Bit rate mode : Constant
Bit rate : 192 Kbps
Channel(s) : 2 channels
Sampling rate : 48.0 KHz
Video delay : -40ms
Stream size : 25.7 MiB (5%)

Скриншоты


[Цитировать]



Показать сообщения:    

Текущее время: 10-Дек 19:44

Часовой пояс: UTC + 3


Вы не можете начинать темы
Вы не можете отвечать на сообщения
Вы не можете редактировать свои сообщения
Вы не можете удалять свои сообщения
Вы не можете голосовать в опросах
Вы не можете прикреплять файлы к сообщениям
Вы не можете скачивать файлы

!ВНИМАНИЕ!
Сайт не предоставляет электронные версии произведений, а занимается лишь коллекционированием и каталогизацией ссылок, присылаемых и публикуемых на форуме нашими читателями. Если вы являетесь правообладателем какого-либо представленного материала и не желаете, чтобы ссылка на него находилась в нашем каталоге, свяжитесь с нами, и мы незамедлительно удалим ее. Файлы для обмена на трекере предоставлены пользователями сайта, и администрация не несет ответственности за их содержание. Просьба не заливать файлы, защищенные авторскими правами, а также файлы нелегального содержания!