[ Today is free to download without increasing Download ]

DL-List and Torrent activity
Сказка о попе и о работнике его Балде
Жанр: мультфильм
Год выпуска: 1973
Продолжительность: 00:18:40
Режиссёр: Инесса Ковалевская
Описание: Мультипликационный фильм – музыкальное представление по мотивам одноименной сказки А.С. Пушкина, рассказывающее известную историю про скупого Попа, изворотливого Чертенка и развеселого Балду, который всех проучил ... Эту сказку Пушкина в нашей стране экранизировали как минимум три раза. Но мультфильм 1973 года выделяется из общего ряда великолепной музыкой и блистательным вокалом Олега Анофриева. В этот раз он превзошел все свои предыдущие достижения (включая первую часть "Бременских музыкантов"), ибо в "Сказке о попе..." поет за ВСЕХ героев - разными голосами, в дуэте, в трио, и так далее...
Доп. информация:

Трансляция спутникового канала: "Карусель"
Качество видео: DVB
Формат видео: MPEG-PS
Видео: MPEG2 Video, 720x576, 25 fps, 3700 kbps
Аудио: MPEG Audio, 2 сh, 48 kHz, 192 kbps


Complete name : O:\Сказка о Попе и работнике его Балде. (1973)_DVB by SLuMeP.mpg
Format : MPEG-PS
File size : 529 MiB
Duration : 18mn 40s
Overall bit rate : 3 962 Kbps
Writing library : (c) 1998-2010 Womble Multimedia, Inc. / MPEG Video Wizard DVD (01/2010) / Apr 20 2010
ID : 224 (0xE0)
Format : MPEG Video
Format version : Version 2
Format profile : Main@Main
Format settings, BVOP : Yes
Format settings, Matrix : Default
Duration : 18mn 40s
Bit rate mode : Variable
Bit rate : 3 691 Kbps
Nominal bit rate : 5 000 Kbps
Width : 720 pixels
Height : 576 pixels
Display aspect ratio : 4:3
Frame rate : 25.000 fps
Standard : PAL
Color space : YUV
Chroma subsampling : 4:2:0
Bit depth : 8 bits
Scan type : Interlaced
Scan order : Top Field First
Bits/(Pixel*Frame) : 0.356
Stream size : 493 MiB (93%)
Writing library : (c) 1998-2010 Womble Multimedia, Inc. / MPEG Video Wizard DVD (01/2010) / Apr 20 2010
ID : 192 (0xC0)
Format : MPEG Audio
Format version : Version 1
Format profile : Layer 2
Duration : 18mn 40s
Bit rate mode : Constant
Bit rate : 192 Kbps
Channel(s) : 2 channels
Sampling rate : 48.0 KHz
Video delay : -40ms
Stream size : 25.7 MiB (5%)



Display posts:    

Current time is: 25-Oct 06:15

All times are UTC + 3

You cannot post new topics in this forum
You cannot reply to topics in this forum
You cannot edit your posts in this forum
You cannot delete your posts in this forum
You cannot vote in polls in this forum
You cannot attach files in this forum
You cannot download files in this forum

The site does not give electronic versions of products, and is engaged only in a collecting and cataloguing of the references sent and published at a forum by our readers. If you are the legal owner of any submitted material and do not wish that the reference to it was in our catalogue, contact us and we shall immediately remove her. Files for an exchange on tracker are given by users of a site, and the administration does not bear the responsibility for their maintenance. The request to not fill in the files protected by copyrights, and also files of the illegal maintenance!