[ Сегодня идет свободное скачивание без начисления Download ]


Статистика раздачи
Нет
 
   
 
Top  
 
 
Капитанская дочкаСтрана: Россия
Жанр: Мультфильм, экранизация
Продолжительность: 00:28:26
Год выпуска: 2005
Выпущено: Киновидеостудия «Анимос»
Режиссёр: Екатерина Михайлова
Русские субтитры: нетОписание:Фильм снят по мотивам одноимённой повести А. С. Пушкина. Художник Нина Виноградова, поэтому в фильме есть на что посмотреть. Один из лучших образцов современной российской кукольной анимации.
Впервые мультфильм был показан в Суздале на 11-м Открытом российском фестивале анимационного кино в 2006 году. Был удостоен премии "Золотой орёл" (церемония состоялась 27 января 2007 года) в номинации "Лучший анимационный фильм".

Режиссёр и команда

Режиссёр: Екатерина Михайлова
сценаристы: Екатерина Михайлова, Татьяна Шестакова
художник-постановщик : Нина Виноградова
аниматоры: Алла Соловьёва, Дмитрий Новосёлов, Евгения Жиркова
оператор Игорь Скидан-Босин
композитор Екатерина Комалькова
звукорежиссёр Виктор Брус
роли озвучивали: Павел Баршак, Евгений Редько, Александр Парра, Людмила Гнилова, Сергей Якубенко, Екатерина Семёнова, Василий Стоноженко, Виктор Пиунов
Качество: DVDRip
Формат: AVI
Видео: 704x480 (1.47:1), 25 fps, XviD build 64 ~2396 kbps avg, 0.28 bit/pixel
Аудио: 48 kHz, AC3 Dolby Digital, 2/0 (L,R) ch, ~192 kbps
Субтитры: отсутствуют

Подробные технические данные

ОбщееПолное имя                       : D:\Мульты\Kapitanskaya_dochka.aviФормат                           : AVIФормат/Информация                : Audio Video InterleaveРазмер файла                     : 528 МбайтПродолжительность                : 28 м.Общий поток                      : 2598 Кбит/секПрограмма кодирования            : VirtualDubMod 1.5.10.2 (build 2540/release)Библиотека кодирования           : VirtualDubMod build 2540/release
ВидеоИдентификатор : 0Формат : MPEG-4 VisualПрофиль формата : Advanced Simple@L5Параметр BVOP формата : 2Параметр QPel формата : НетПараметр GMC формата : Без точки переходаПараметр матрицы формата : ВыборочнаяИдентификатор кодека : XVIDИдентификатор кодека/Подсказка : XviDПродолжительность : 28 м.Битрейт : 2396 Кбит/секШирина : 704 пикселяВысота : 480 пикселейСоотношение сторон : 3:2Частота кадров : 25,000 кадров/секСтандарт вещания : NTSCЦветовое пространство : YUVСубдискретизация насыщенности : 4:2:0Битовая глубина : 8 битТип развёртки : ПрогрессивнаяМетод сжатия : С потерямиБит/(Пиксели*Кадры) : 0.284Размер потока : 487 Мбайт (92%)Библиотека кодирования : XviD 64
АудиоИдентификатор : 1Формат : AC-3Формат/Информация : Audio Coding 3Расширение режима : CM (complete main)Идентификатор кодека : 2000Продолжительность : 28 м.Вид битрейта : ПостоянныйБитрейт : 192 Кбит/секКаналы : 2 каналаРасположение каналов : Front: L RЧастота : 48,0 КГцБитовая глубина : 16 битМетод сжатия : С потерямиРазмер потока : 39,0 Мбайт (7%)Выравнивание : Разделение по промежуткамПродолжительность промежутка : 40 мс. (1,00 видеокадр)Время предзагрузки промежутка : 500 мс.

Скриншоты


-Сравнение с другой раздачей:
(vicpryl, 704x480, 1575 kbps, mp3 128 kbps) http://screenshotcomparison.com/comparison/25715-Доп. информация:
Екатерина Михайлова, режиссёр:
"От основного сюжета книги мы не отходили. Единственное отличие: наше повествование будет основано на воспоминаниях Гринёва.
… куклы только второстепенных персонажей занимают несколько ящиков. Главные же герои восхищают своим обаянием и характерностью. И это неудивительно, ведь художник-постановщик "Капитанской дочки" – сама Нина Виноградова".

Другие работы Нины Виноградовой

(2000 г., сборник «Путешествие в страну Сказки»)
(2005 г., сборник «Гора самоцветов», Выпуск 2)
-

[Цитировать]



Показать сообщения:    

Текущее время: 10-Дек 10:03

Часовой пояс: UTC + 3


Вы не можете начинать темы
Вы не можете отвечать на сообщения
Вы не можете редактировать свои сообщения
Вы не можете удалять свои сообщения
Вы не можете голосовать в опросах
Вы не можете прикреплять файлы к сообщениям
Вы не можете скачивать файлы

!ВНИМАНИЕ!
Сайт не предоставляет электронные версии произведений, а занимается лишь коллекционированием и каталогизацией ссылок, присылаемых и публикуемых на форуме нашими читателями. Если вы являетесь правообладателем какого-либо представленного материала и не желаете, чтобы ссылка на него находилась в нашем каталоге, свяжитесь с нами, и мы незамедлительно удалим ее. Файлы для обмена на трекере предоставлены пользователями сайта, и администрация не несет ответственности за их содержание. Просьба не заливать файлы, защищенные авторскими правами, а также файлы нелегального содержания!