[ Сегодня идет свободное скачивание без начисления Download ]


Статистика раздачи
Нет
 
   
 
Top  
 
 
Огонь
Жанр: мультфильм
Год выпуска: 1971
Продолжительность: 00:15:05
Режиссёр: Борис Храневич
Описание: Мультипликационный фильм о том, как мальчик, совершив необыкновенное путешествие во времени, научился ценить человеческий труд. Школьнику Сергееву Сергею на летних каникулах надо прочесть книгу профессора Чайкина «Живой огонь». Вместо этого он шалит со спичками, представляя их ракетной установкой. Такая игра едва не приводит к пожару. За ним наблюдают Часы и Мышь. Строгие Часы с педагогической целью отправляют Сергея в далёкое прошлое — к пещерным людям. Там он научился уважать и беречь огонь, без которого жизнь висела на волоске.
Доп. информация:
По мотивам сказочной повести Юрия Олеши
Трансляция спутникового канала: "Карусель"
Качество видео: DVB
Формат видео: MPEG-PS
Видео: MPEG2 Video, 720x576, 25 fps, 3600 kbps
Аудио: MPEG Audio, 2 сh, 48 kHz, 192 kbps

MediaInfo

General
Complete name : G:\Огонь. (1971)_DVB by SLuMeP.mpg
Format : MPEG-PS
File size : 423 MiB
Duration : 15mn 5s
Overall bit rate mode : Variable
Overall bit rate : 3 917 Kbps
Writing library : (c) 1998-2010 Womble Multimedia, Inc. / MPEG Video Wizard DVD 5.0.0.114 (01/2010) / Apr 20 2010
Video
ID : 224 (0xE0)
Format : MPEG Video
Format version : Version 2
Format profile : Main@Main
Format settings, BVOP : Yes
Format settings, Matrix : Custom
Format settings, GOP : M=3, N=12
Duration : 15mn 5s
Bit rate mode : Variable
Bit rate : 3 647 Kbps
Maximum bit rate : 5 000 Kbps
Width : 720 pixels
Height : 576 pixels
Display aspect ratio : 4:3
Frame rate : 25.000 fps
Standard : PAL
Color space : YUV
Chroma subsampling : 4:2:0
Bit depth : 8 bits
Scan type : Interlaced
Scan order : Top Field First
Compression mode : Lossy
Bits/(Pixel*Frame) : 0.352
Time code of first frame : 00:00:00:00
Time code source : Group of pictures header
Stream size : 394 MiB (93%)
Writing library : (c) 1998-2010 Womble Multimedia, Inc. / MPEG Video Wizard DVD 5.0.0.114 (01/2010) / Apr 20 2010
Audio
ID : 192 (0xC0)
Format : MPEG Audio
Format version : Version 1
Format profile : Layer 2
Duration : 15mn 5s
Bit rate mode : Constant
Bit rate : 192 Kbps
Channel(s) : 2 channels
Sampling rate : 48.0 KHz
Compression mode : Lossy
Delay relative to video : -40ms
Stream size : 20.7 MiB (5%)

Скриншоты

[Цитировать]



Показать сообщения:    

Текущее время: 11-Дек 03:20

Часовой пояс: UTC + 3


Вы не можете начинать темы
Вы не можете отвечать на сообщения
Вы не можете редактировать свои сообщения
Вы не можете удалять свои сообщения
Вы не можете голосовать в опросах
Вы не можете прикреплять файлы к сообщениям
Вы не можете скачивать файлы

!ВНИМАНИЕ!
Сайт не предоставляет электронные версии произведений, а занимается лишь коллекционированием и каталогизацией ссылок, присылаемых и публикуемых на форуме нашими читателями. Если вы являетесь правообладателем какого-либо представленного материала и не желаете, чтобы ссылка на него находилась в нашем каталоге, свяжитесь с нами, и мы незамедлительно удалим ее. Файлы для обмена на трекере предоставлены пользователями сайта, и администрация не несет ответственности за их содержание. Просьба не заливать файлы, защищенные авторскими правами, а также файлы нелегального содержания!